<?xml version="1.0" standalone="no"?>
<!DOCTYPE svg PUBLIC "-//W3C//DTD SVG 1.1//EN" "http://www.w3.org/Graphics/SVG/1.1/DTD/svg11.dtd" >
<svg>
<metadata>
Created by FontForge 20090914 at Fri Oct 29 06:09:32 2021
 By www-data
Copyright &#194;&#169; Esselte Corporation 1997.  Portions Copyright Microsoft Corporation 1997.  All rights reserved.
</metadata>
<defs>
<font id="Pristina-Regular" horiz-adv-x="614" >
  <font-face 
    font-family="Pristina"
    font-weight="400"
    font-stretch="normal"
    units-per-em="2048"
    panose-1="3 6 4 2 4 4 6 8 2 4"
    ascent="1638"
    descent="-410"
    x-height="796"
    cap-height="1331"
    bbox="-869.004 -915.002 2132.18 1769.02"
    underline-thickness="120"
    underline-position="-261"
    unicode-range="U+0020-U+F002"
  />
<missing-glyph horiz-adv-x="369" 
d="M37 0v1365h295v-1365h-295zM295 37v1291h-221v-1291h221z" />
    <glyph glyph-name=".notdef" horiz-adv-x="369" 
d="M37 0v1365h295v-1365h-295zM295 37v1291h-221v-1291h221z" />
    <glyph glyph-name="space" unicode=" " horiz-adv-x="369" 
 />
    <glyph glyph-name="exclam" unicode="!" horiz-adv-x="492" 
d="M625 1278c-127.333 -218.667 -240.667 -502.666 -340 -851.999c-9.33301 -30.667 -8.66602 -55.334 2.00098 -74.001c2 -3.33301 3 -6.33301 3 -9c0 -7.33301 -5 -11 -15 -11c-14 0 -31.333 7.33301 -52 22c-29.333 21.333 -44 41 -44 59c0 8.66699 1.66699 20.667 5 36
c37.333 160 92.666 342.333 165.999 547c58 164 99 268.333 123 313c19.333 36 37 54 53 54c3.33301 0 13 -2.33301 29 -7c68 -18.667 102 -37.334 102 -56.001c0 -11.333 -10.667 -18.666 -32 -21.999zM224.999 109.001c-10 -23.333 -21.668 -68 -35.001 -134
c-5.33301 -13.333 -16.666 -16 -33.999 -8c-50 22 -75 48.333 -75 79c0 7.33301 2.33301 21.333 7 42l14 69c6 20.667 15.333 31 28 31c4.66699 0 9.66699 -1.33301 15 -4c57.333 -22.667 86 -41 86 -55c0 -5.33301 -2 -12 -6 -20z" />
    <glyph glyph-name="quotedbl" unicode="&#x22;" horiz-adv-x="565" 
d="M643 1237c4 -44 -12.333 -118.333 -49 -223c-34 -97.333 -59 -146 -75 -146c-2.66699 0 -5.66699 0.666992 -9 2c-36 21.333 -55.667 46.666 -59 75.999c-1.33301 12.667 2 19 10 19c34.667 106.667 57.667 218.334 69 335.001c3.33301 27.333 5.33301 43 6 47
c2.66699 11.333 7.66699 18.333 15 21c6 2 30 -23.333 72 -76c11.333 -14.667 18 -33 20 -55zM406 1235c4 -47.333 -12.001 -121.668 -48.001 -223.001c-34 -98 -59 -147 -75 -147c-3.33301 0 -7 1 -11 3c-34 20.667 -53.667 46 -59 76c0 14 3.33301 20.333 10 19
c34.667 109.333 58 221 70 335c2.66699 27.333 4.33398 43 5.00098 47c2.66699 11.333 7.66699 18.333 15 21c6 2 30 -23.333 72 -76c14 -17.333 21 -35.666 21 -54.999z" />
    <glyph glyph-name="numbersign" unicode="#" horiz-adv-x="1079" 
d="M768 664c-62.667 0 -165 2.66895 -307 8.00195l-92 -256c113.333 -8.66699 215 -11.334 305 -8.00098c14.667 35.333 46 120.666 94 255.999zM891 750.002c62.667 5.33301 105.003 20.332 127.003 44.999c8 8.66699 17.667 12.334 29 11.001c10.667 -2 16 -7 16 -15
c-6 -12.667 -12.333 -36.667 -19 -72c-4 -24.667 -12 -40 -24 -46c-5.33301 -2.66699 -23 -5 -53 -7c-20 -1.33301 -55.667 -2 -107 -2l-90 -252c101.333 5.33301 162.666 21 183.999 47c8 8 17.333 11 28 9c10 -2 14.333 -7 13 -15c-6 -18 -11.333 -42 -16 -72
c-3.33301 -22 -6.33301 -34.333 -9 -37c-8 -8 -30.333 -12.667 -67 -14c-58 -2.66699 -112.667 -4 -164 -4l-18 -54c-30.667 -88 -46 -156.333 -46 -205c0 -12 2.5 -22.833 7.5 -32.5s7.5 -16.834 7.5 -21.501c0 -16 -9.66699 -24 -29 -24c-7.33301 0 -15.333 1.66699 -24 5
l-53 18c-20 7.33301 -30 23.666 -30 48.999c0 10.667 2.33301 22.334 7 35.001l84 230c-5.33301 0 -107 4 -305 12c-4 -10.667 -11.667 -32.667 -23 -66c-30 -88.667 -45 -157 -45 -205c0 -12 2.5 -22.833 7.5 -32.5s7.5 -16.834 7.5 -21.501c0 -16 -9.66699 -24 -29 -24
c-7.33301 0 -15.666 1.66699 -24.999 5l-51 18c-20 7.33301 -30 23 -30 47c0 11.333 2.66699 23.666 8 36.999l90 246c-78 2.66699 -130 -7 -156 -29c-6 -6.66699 -13.667 -9.66699 -23 -9s-14 4.66699 -14 12l2 8c5.33301 10.667 15.666 34.334 30.999 71.001
c8 20 14.333 31.333 19 34c9.33301 6.66699 31 8.33398 65 5.00098c24.667 -2 59.667 -5.33301 105 -10l92 254c-49.333 2.66699 -87.333 4 -114 4c-35.333 0 -59 -2.66699 -71 -8c-2.66699 -1.33301 -11.334 -9 -26.001 -23c-7.33301 -6.66699 -15.333 -9.66699 -24 -9
c-9.33301 0.666992 -14 4.33398 -14 11.001c0 2.66699 1 5.66699 3 9c0 -4 10.333 19.667 31 71c7.33301 20 13 31 17 33c9.33301 6 31.666 7.33301 66.999 4c37.333 -2.66699 90.333 -6.66699 159 -12l17 45c22 61.333 33 117 33 167c0 16 -3 29.833 -9 41.5
s-9 19.5 -9 23.5c0 15.333 9.33301 22 28 20l82 -11c25.333 -6.66699 34 -31.667 26 -75l-78 -219c70 -6 137 -9 201 -9c33.333 0 69 0.666992 107 2l22 60c22.667 59.333 34 115 34 167c0 15.333 -3.16699 29 -9.5 41s-9.5 20 -9.5 24c0 15.333 9.33301 22 28 20l80 -11
c27.333 -6.66699 37 -31.667 29 -75z" />
    <glyph glyph-name="dollar" unicode="$" horiz-adv-x="791" 
d="M975 1202c-28 -85.333 -62.332 -159.662 -102.999 -222.995c-16.667 -26.667 -34 -40 -52 -40c-17.333 0 -46.333 13.333 -87 40c-12.667 8.66699 -19 17 -19 25c0 12 10.333 21.333 31 28c15.333 5.33301 33.5 34 54.5 86s31.5 91.667 31.5 119s-12 41 -36 41
c-12.667 0 -31.334 -2.66699 -56.001 -8c-66 -146 -141 -329.667 -225 -551l118 -215c38.667 -74.667 58 -132 58 -172c0 -113.333 -58.667 -205 -176 -275c-33.333 -51.333 -77 -77 -131 -77c-30 0 -64 4.66699 -102 14c-8 -30.667 -14.333 -62 -19 -94
c-6 -44.667 -6 -73.334 0 -86.001c8.66699 -18.667 3.66699 -28 -15 -28c-6 0 -12.667 3 -20 9c-34.667 28.667 -52 59.334 -52 92.001c0 13.333 2.33301 27.666 7 42.999l27 88c-71.333 28.667 -128 62.334 -170 101.001c-26 23.333 -39 45.666 -39 66.999
c0 11.333 11 40.666 33 87.999c11.333 25.333 21.666 38 30.999 38c8.66699 0 16.667 -13.333 24 -40c11.333 -40.667 65.333 -82.334 162 -125.001c47.333 154.667 100 314.667 158 480c-84.667 161.333 -127 279.333 -127 354c0 87.333 56 170.666 168 249.999
c10.667 8 21.334 12 32.001 12c17.333 0 26 -7.66699 26 -23c0 -8.66699 -4.33301 -17.334 -13 -26.001c-54.667 -51.333 -80.667 -109.333 -78 -174c2 -64 20.333 -135 55 -213c58.667 162.667 116 307.334 172 434.001c-25.333 -12.667 -46.666 -19 -63.999 -19
c-20 0 -30 7 -30 21c0 12 9.66699 23 29 33c24 12.667 58 27 102 43c23.333 52.667 50.666 110 81.999 172c16.667 33.333 37.667 50 63 50c3.33301 0 16.333 -2.33301 39 -7c15.333 -2.66699 23 -9.66699 23 -21c0 -8.66699 -5.66699 -16 -17 -22
c-17.333 -9.33301 -36.333 -33.333 -57 -72l-33 -63c4 1.33301 9 3.33301 15 6c16.667 5.33301 29.334 8 38.001 8c15.333 0 36 -18.333 62 -55c41.333 -19.333 63.666 -30 66.999 -32c14.667 -10 22 -22.333 22 -37c0 -10.667 -3 -25.334 -9 -44.001zM555.001 262.004
c-3.33301 60.667 -38 155 -104 283c-63.333 -179.333 -109.333 -320 -138 -422c52 -16.667 93.667 -25 125 -25c83.333 0 122.333 54.667 117 164z" />
    <glyph glyph-name="percent" unicode="%" horiz-adv-x="1159" 
d="M662 1133c-40.667 -126 -87.9971 -214.998 -141.997 -266.998c-28 -27.333 -69.667 -41 -125 -41c-14 0 -27 2 -39 6c-106.667 17.333 -160.334 63.333 -161.001 138c-0.666992 45.333 14.333 108.666 45 189.999c34.667 91.333 72 153.666 112 186.999
c22 18 40.333 27 55 27c15.333 0 42.666 -17.333 81.999 -52c52.667 24.667 83.667 37 93 37c19.333 0 40.666 -16 63.999 -48s35 -61.333 35 -88c0 -20 -6.33301 -49.667 -19 -89zM1057 1266l-709 -1014c-90 -129.333 -135 -219.666 -135 -270.999
c0 -4.66699 1.33301 -11.167 4 -19.5s4 -15.166 4 -20.499c0 -14 -5.66699 -21 -17 -21c-6.66699 0 -14 2.66699 -22 8l-61 43c-17.333 12.667 -26 29 -26 49c0 18 8 38.667 24 62l723 1026c77.333 109.333 116 192 116 248c0 6 -1.66699 13.333 -5 22s-5 15.667 -5 21
c0 14 6.33301 21 19 21c6 0 12.667 -2.33301 20 -7l62 -41c18 -12 27 -27 27 -45c0 -16 -6.33301 -36.333 -19 -61zM989.003 283c-42 -130 -89 -219.667 -141 -269c-25.333 -23.333 -67 -36.333 -125 -39c-14 0 -27 2.33301 -39 7
c-106.667 16.667 -160.667 62.334 -162 137.001c-0.666992 46 14.666 110 45.999 192c34 91.333 71.333 153.666 112 186.999c21.333 17.333 39.333 26 54 26s42.334 -17.667 83.001 -53c52.667 24.667 83.667 37 93 37c18.667 0 39.667 -16 63 -48s35 -61.667 35 -89
c0 -20 -6.33301 -49.333 -19 -88zM578.003 1229c4 29.333 4.99902 47.667 2.99902 55c-2.66699 10 -12.667 14 -30 12c-23.333 -5.33301 -52.666 -13.333 -87.999 -24c-28.667 -6 -44.334 -6.66699 -47.001 -2c-48.667 -62 -83 -144.667 -103 -248c-4 -24 -6 -45.667 -6 -65
c0 -63.333 20 -95 60 -95c48 0 93.667 43.667 137 131c36.667 73.333 61.334 152 74.001 236zM905.002 379.001c6.66699 44.667 2.33105 66.998 -13.002 66.998c-3.33301 0 -7.66602 -0.666992 -12.999 -2c-23.333 -4 -52.666 -10.667 -87.999 -20
c-28 -10 -44 -11.333 -48 -4c-48 -61.333 -82 -144.666 -102 -249.999c-4.66699 -23.333 -7 -44.666 -7 -63.999c0 -64 20 -96 60 -96c48.667 0 94.667 44 138 132c36 74 60.333 153 73 237z" />
    <glyph glyph-name="ampersand" unicode="&#x26;" horiz-adv-x="1460" 
d="M1409 -133c-19.333 -28 -52.001 -62 -98.001 -102c-52.667 -46.667 -91 -70 -115 -70c-90.667 0 -254.334 247 -491.001 741c-12 -0.666992 -22 -1 -30 -1c-30 0 -45 6.33301 -45 19c0 12 13.333 32 40 60c-18 36.667 -34.333 73 -49 109v2
c-290.667 -220.667 -445.667 -390 -465 -508c-4.66699 -26 4.66602 -43 27.999 -51c17.333 -6 39.333 -7 66 -3c108 18.667 222.667 70 344 154c10 7.33301 18 19.166 24 35.499s15.667 28.5 29 36.5c32.667 18.667 53.667 28 63 28c17.333 0 27 -15 29 -45
c3.33301 -36 2.33301 -60.333 -3 -73c-4.66699 -10 -17.334 -21.667 -38.001 -35c-46 -30 -113 -66.333 -201 -109c-124.667 -60 -214.667 -90 -270 -90c-48 0 -86 26.667 -114 80c-62 47.333 -93 89 -93 125c0 64 70.333 159.667 211 287
c98.667 90.667 214.334 182 347.001 274c-60.667 159.333 -91 287 -91 383c0 30.667 41.667 46 125 46c34.667 0 69 -2.33301 103 -7c31.333 -4 45.666 -15 42.999 -33c88.667 -4 151.334 -16.333 188.001 -37c22 -12 33 -30.667 33 -56c0 -8 -3.33301 -42.333 -10 -103
c-3.33301 -26.667 -29.666 -60.667 -78.999 -102c-24.667 -20.667 -83.667 -64.667 -177 -132l25.5 -58c11.667 -26 20.167 -45.667 25.5 -59c31.333 -1.33301 66 -2 104 -2c208.667 0 338.334 13 389.001 39c32 16.667 49.333 34 52 52c2.66699 11.333 12 17 28 17
c14 0 21 -8.66699 21 -26c0 -26.667 -4.66699 -58.667 -14 -96c-12 -45.333 -26.667 -74.666 -44 -87.999c-10 -8 -64.667 -12.333 -164 -13c-58 0.666992 -116 1 -174 1c-49.333 -0.666992 -95.666 -2.66699 -138.999 -6c82 -168 159.667 -307 233 -417
c82.667 -124 144.334 -186 185.001 -186c37.333 0.666992 81.666 20.667 132.999 60c6 4 12.667 6 20 6c16.667 0 25 -7 25 -21c0 -7.33301 -3.33301 -16 -10 -26zM880.999 983c3.33301 18.667 -24.333 41.001 -83 67.001c-54 23.333 -93.333 35 -118 35
c-46.667 0 -70 -21.667 -70 -65c0 -40 20.667 -115.667 62 -227c54 36.667 102.667 75.667 146 117c39.333 37.333 60.333 61.666 63 72.999z" />
    <glyph glyph-name="quotesingle" unicode="'" horiz-adv-x="328" 
d="M406 1251c4 -46 -12 -119.667 -48 -221c-34 -98 -59.667 -147 -77 -147c-3.33301 0 -6.33301 0.666992 -9 2c-33.333 16 -53 41.333 -59 76c0 13.333 3.33301 20 10 20c34.667 108 58 220 70 336c2.66699 26 4.66699 41.333 6 46c2 10.667 6.66699 17 14 19
c6.66699 2 30.667 -23 72 -75c14 -17.333 21 -36 21 -56z" />
    <glyph glyph-name="parenleft" unicode="(" horiz-adv-x="819" 
d="M989 1354c13.333 -9.33301 20 -18.9971 20 -28.9971c0 -16 -10.333 -24 -31 -24c-6 0 -11.667 1.33301 -17 4c-54.667 25.333 -97 38 -127 38c-72 0 -163.667 -137.667 -275 -413c-108 -268.667 -181 -531.667 -219 -789c-5.33301 -34.667 -8 -62.667 -8 -84
c0 -42.667 11.667 -75.334 35 -98.001c20 -20 61.667 -43.333 125 -70c18 -7.33301 27 -20.333 27 -39c0 -15.333 -7.33301 -23 -22 -23c-3.33301 0 -6.66602 0.333008 -9.99902 1c-104.667 22.667 -176.334 47.667 -215.001 75c-45.333 32 -68 79.667 -68 143
c0 14 1 29.333 3 46c29.333 244.667 103 524.667 221 840c130 347.333 242 520.666 336 519.999c58.667 -0.666992 133.667 -33.334 225 -98.001z" />
    <glyph glyph-name="parenright" unicode=")" horiz-adv-x="819" 
d="M735 1184c-28 -230.667 -95.667 -499.668 -203 -807.001c-130 -372 -250.667 -557 -362 -555c-60.667 1.33301 -133 34 -217 98c-9.33301 7.33301 -14 15 -14 23c0 16.667 11.333 25 34 25c6 0 11.667 -1 17 -3c56.667 -22 99.667 -33 129 -33
c66.667 0 152 126.667 256 380c108 262 183 536.333 225 823c3.33301 22.667 5 43.334 5 62.001c0 51.333 -14 91.666 -42 120.999c-22 22.667 -62.333 47 -121 73c-16.667 7.33301 -25 18.666 -25 33.999c0 20.667 12 28.334 36 23.001
c108.667 -25.333 182.667 -52.666 222 -81.999c42 -30.667 63 -75.667 63 -135c0 -14 -1 -29.667 -3 -47z" />
    <glyph glyph-name="asterisk" unicode="*" horiz-adv-x="543" 
d="M631 1239c9.33301 -30 0.333008 -48.334 -27 -55.001l-102 -25l69 -82c10 -11.333 15 -20 15 -26c0 -8 -9 -18.333 -27 -31c-14.667 -10.667 -25.667 -16 -33 -16c-8.66699 0 -17.334 7.33301 -26.001 22l-56 90l-57 -90c-9.33301 -16 -17.666 -24 -24.999 -24
c-6.66699 0 -18 5.83301 -34 17.5s-24 21.834 -24 30.501c0 7.33301 4.33301 16.333 13 27l70 82c-11.333 2 -46.666 10.333 -105.999 25c-16.667 4 -26.334 9.33301 -29.001 16c-2 6 0 19 6 39c7.33301 22.667 16.666 34 27.999 34c6 0 13.667 -1.66699 23 -5
c41.333 -16.667 74.333 -31 99 -43c-2 21.333 -5 57.333 -9 108c-1.33301 22.667 4.33398 35.667 17.001 39c6 1.33301 15.333 2 28 2c30.667 0 45 -13.667 43 -41c-2 -44 -4.66699 -79.333 -8 -106l101 41c10.667 4 18.667 6 24 6c10.667 0 19.667 -11.667 27 -35z" />
    <glyph glyph-name="plus" unicode="+" horiz-adv-x="868" 
d="M522 524c16.667 0 58.332 -0.669922 124.999 -2.00293c61.333 -1.33301 95.666 5 102.999 19c4.66699 9.33301 12.334 13.333 23.001 12c10 -0.666992 15 -6 15 -16s-4.66699 -27.667 -14 -53s-17 -40.666 -23 -45.999c-10 -8.66699 -28.333 -12 -55 -10
c-76 5.33301 -141.333 8.66602 -196 9.99902c-4 -15.333 -13.667 -60.333 -29 -135c-10 -49.333 -15.333 -78.333 -16 -87c-1.33301 -12.667 2 -22 10 -28c4.66699 -5.33301 5.66699 -12.666 3 -21.999c-2 -10 -7 -15 -15 -15c-2.66699 0 -5.66699 1 -9 3
c-7.33301 4 -28.333 13.333 -63 28c-19.333 7.33301 -29 21 -29 41c0 12.667 5 33.334 15 62.001c16 48.667 31 100.334 45 155.001c-27.333 1.33301 -69 2 -125 2c-68.667 0 -106.334 -6 -113.001 -18c-4.66699 -8 -12.667 -11 -24 -9
c-11.333 2.66699 -15.666 9.66699 -12.999 21c2.66699 8 7.66699 31.333 15 70c4.66699 29.333 36.667 41 96 35s121.333 -10.333 186 -13c8 30 19 77.333 33 142c12 62 13.333 96.667 4 104c-8.66699 7.33301 -11.667 16 -9 26s9 14.333 19 13
c2.66699 -0.666992 18.834 -9.66699 48.501 -27s44.5 -34 44.5 -50c0 -8.66699 -2.33301 -20.667 -7 -36c-12.667 -46 -27.667 -104.667 -45 -176z" />
    <glyph glyph-name="comma" unicode="," horiz-adv-x="410" 
d="M244 229c5.33301 -9.33301 -1.66602 -31.665 -20.999 -66.998c-55.333 -104.667 -100.333 -211.334 -135 -320.001c14 -6.66699 8.5 -18 -16.5 -34s-48.833 -22.333 -71.5 -19c-10 1.33301 -15 10 -15 26c0 19.333 10.333 66.666 31 141.999
c30 107.333 58.667 179 86 215c12 15.333 27 26.333 45 33c61.333 21.333 93.666 29.333 96.999 24z" />
    <glyph glyph-name="hyphen" unicode="-" horiz-adv-x="743" 
d="M635 432c-2 -12 -5.33398 -40 -10.001 -84c-2.66699 -24 -5 -38 -7 -42c-4.66699 -8.66699 -16.667 -13 -36 -13c-94.667 0 -221 19 -379 57c-21.333 5.33301 -37.666 8 -48.999 8c-18 0 -32.333 -10 -43 -30c-4 -6.66699 -8.66699 -10 -14 -10
c-9.33301 0 -14 5.66699 -14 17c0 2.66699 0.333008 5 1 7l18 82c7.33301 30 15.333 45 24 45c6 0 14 -1.33301 24 -4c156.667 -46.667 278.667 -70.667 366 -72c32 0 54.333 4.33301 67 13c7.33301 4.66699 15 16 23 34c4.66699 10 11 13.667 19 11
c8 -2 11.333 -8.33301 10 -19z" />
    <glyph glyph-name="period" unicode="." horiz-adv-x="410" 
d="M156 199c16.667 -6 25.001 -17.334 25.001 -34.001c0 -14 -13.333 -52.667 -40 -116c-20.667 -49.333 -43.667 -74 -69 -74c9.33301 0 -14.667 3 -72 9c-8 0.666992 -13 4.66699 -15 12c-2.66699 7.33301 0.333008 12 9 14c34.667 78.667 55.667 133.334 63 164.001
c7.33301 28 17.666 42 30.999 42c11.333 0 34 -5.66699 68 -17z" />
    <glyph glyph-name="slash" unicode="/" horiz-adv-x="819" 
d="M967 1266l-673.999 -1014c-86 -129.333 -129 -219.666 -129 -270.999c0 -4 1 -9.5 3 -16.5s3 -12.833 3 -17.5c0 -24 -11.667 -36 -35 -36c-12.667 0 -27 5.66699 -43 17l-57 43c-16 12 -24 27.667 -24 47c0 18.667 8 40 24 64l684 1026c70 105.333 105 184.333 105 237
c0 6 -1.33301 13.333 -4 22s-4 15.667 -4 21c0 19.333 8.66699 29 26 29c5.33301 0 10.666 -1.33301 15.999 -4l100 -41c18 -12 27 -27 27 -45c0 -16.667 -6 -37 -18 -61z" />
    <glyph glyph-name="zero" unicode="0" horiz-adv-x="866" 
d="M840 858c0 -211.333 -37.6699 -410.666 -113.003 -597.999c-80.667 -199.333 -172.667 -299 -276 -299c-82.667 0 -160 15.667 -232 47c-28 12.667 -40.333 23.667 -37 33c-49.333 32 -80.666 56.333 -93.999 73c-21.333 27.333 -32 66.666 -32 117.999
c0 30 3.33301 68 10 114c14.667 103.333 54.334 222 119.001 356c62 127.333 120.333 217 175 269c26.667 24.667 51.334 37 74.001 37c10 0 53 -18 129 -54l78 10c34 4 60.333 6 79 6c80 0 120 -37.333 120 -112zM708.997 784c0 75.333 -32.333 112.999 -97 112.999
c-16.667 0 -44.667 -2.66699 -84 -8c-19.333 6.66699 -31.333 9.33398 -36 8.00098c-7.33301 0 -32 -19.667 -74 -59c-64 -60 -119.333 -155.333 -166 -286c-45.333 -126 -68 -241.667 -68 -347c0 -34 14 -66.333 42 -97c25.333 -28.667 56.333 -49.667 93 -63
c19.333 -6.66699 37.333 -10 54 -10c44 0 89 25.333 135 76c54.667 60 102 157.667 142 293c39.333 133.333 59 260 59 380z" />
    <glyph glyph-name="one" unicode="1" horiz-adv-x="516" 
d="M588 961c12.667 -8.66699 19 -17.668 19 -27.001c0 -18 -17.333 -28.333 -52 -31c-61.333 -81.333 -117 -192.666 -167 -333.999c-52.667 -148.667 -87 -296.667 -103 -444c-4.66699 -42 -0.666992 -74 12 -96c4.66699 -8 7 -16.333 7 -25c0 -20 -10.333 -30 -31 -30
c-10 0 -22.333 3.33301 -37 10c-43.333 18.667 -68.666 31 -75.999 37c-16 12 -24 30.667 -24 56c0 18.667 3.66699 47 11 85c46.667 226.667 104 407.667 172 543l-233 -248c-8.66699 -7.33301 -18.667 -11 -30 -11c-22.667 0 -34 9.66699 -34 29
c0 10 5.66699 19.667 17 29c120 96 231.333 236.667 334 422c10 18 17.333 28.333 22 31c6 2.66699 17 1 33 -5c16 34.667 36 52 60 52c23.333 0 56.666 -14.333 99.999 -43z" />
    <glyph glyph-name="two" unicode="2" horiz-adv-x="895" 
d="M848 -121c-4.66699 -15.333 -15.001 -24.001 -31.001 -26.001c-11.333 0 -22.333 8.66699 -33 26c-2.66699 7.33301 -5.66699 14.666 -9 21.999c-7.33301 9.33301 -25.333 18.333 -54 27c-179.333 56.667 -345.666 85 -498.999 85c-24 0 -47.333 -1 -70 -3l-56 -59
c-10.667 -10.667 -31 -12.667 -61 -6c-29.333 10.667 -43 28.334 -41 53.001c3.33301 48 10.833 89 22.5 123s37.167 51 76.5 51c7.33301 0 46.666 -3.33301 117.999 -10c144.667 116.667 275 247 391 391c60 74.667 90 154.667 90 240c0 26.667 -3 44.667 -9 54
c-10 14.667 -31 22 -63 22c-12 0 -25.333 -1 -40 -3c-81.333 -9.33301 -173 -53.666 -275 -132.999c-24 -18.667 -36 -38 -36 -58c0 1.33301 3.33301 -16.667 10 -54c3.33301 -21.333 -0.666992 -32 -12 -32c-10.667 0 -22.667 6.33301 -36 19c-16 16 -36.333 39.333 -61 70
c-19.333 28.667 -29 51.667 -29 69c0 18 10.333 34.667 31 50c200 144 355 214.333 465 211c26 -1.33301 52.667 -26 80 -74c54 12 77.333 18 70 18c29.333 0 44 -41 44 -123c0 -71.333 -4 -119.333 -12 -144c-16 -49.333 -58.333 -109 -127 -179
c-135.333 -138.667 -265.666 -258.334 -390.999 -359.001c164 -11.333 330 -50.666 498 -117.999c41.333 -16.667 62 -44 62 -82c0 -13.333 -4.33301 -36 -13 -68z" />
    <glyph glyph-name="three" unicode="3" horiz-adv-x="784" 
d="M705 242c14.667 -26 22 -53.999 22 -83.999c0 -46 -16.333 -87 -49 -123c-96 -104.667 -210.333 -198.667 -343 -282c-145.333 -92 -263.666 -138 -354.999 -138c-43.333 0 -84.666 15.667 -123.999 47c-8.66699 7.33301 -39.334 38 -92.001 92c-10 11.333 -15 22 -15 32
c0 16 9 24 27 24c8 0 15.667 -2.33301 23 -7c57.333 -34 103 -51 137 -51c42.667 0 104.334 15.667 185.001 47c98.667 38.667 195 92.167 289 160.5s160 133.166 198 194.499c18.667 28.667 28 54.667 28 78c0 31.333 -15.333 56.333 -46 75
c-72.667 45.333 -154.667 68 -246 68c-17.333 0 -35 -0.666992 -53 -2c-10 -0.666992 -24.5 -3.16699 -43.5 -7.5s-32.167 -6.5 -39.5 -6.5c-17.333 0 -27.333 8 -30 24c-5.33301 30.667 -8 67 -8 109c0 18.667 17 36.334 51 53.001c99.333 47.333 166.333 82.333 201 105
c59.333 38 106.333 83.333 141 136c13.333 20.667 20 38 20 52c0 24.667 -19 37 -57 37c-42 0 -89.667 -13.667 -143 -41c-106 -56 -164 -105.333 -174 -148c-4.66699 -18.667 -13 -28 -25 -28c-7.33301 0 -14 4.66699 -20 14c-35.333 51.333 -53 83.666 -53 96.999
c0 22.667 15 45 45 67c97.333 70.667 195.666 121.667 294.999 153c25.333 8 46 12 62 12c20.667 0 37 -7.33301 49 -22l32 -53c60 -40.667 90 -83.667 90 -129c0 -31.333 -16.333 -61.333 -49 -90c-78 -68.667 -186.667 -145.334 -326 -230.001
c155.333 -16 279.666 -56.333 372.999 -121c29.333 -20 44 -38.667 44 -56c0 -9.33301 -7 -28.666 -21 -57.999z" />
    <glyph glyph-name="four" unicode="4" horiz-adv-x="948" 
d="M860 127c4 -18.667 5.99902 -30.665 5.99902 -35.998c0 -22.667 -20.333 -37.334 -61 -44.001c-44 -6.66699 -95.333 -10 -154 -10c-20.667 -97.333 -34.334 -189 -41.001 -275c-1.33301 -20.667 -0.333008 -33.5 3 -38.5s7.33301 -9.83301 12 -14.5
c2 -3.33301 3 -7 3 -11c0 -20 -10.333 -30 -31 -30c-4.66699 0 -9 0.666992 -13 2c-24.667 9.33301 -54.667 24.333 -90 45c-12 13.333 -18 27.666 -18 42.999c0 18 20.333 110.333 61 277c-203.333 -6 -355.666 -4.66699 -456.999 4c-6.66699 -18 -12.667 -28.667 -18 -32
c-6 -3.33301 -20.667 -3 -44 1c-16 3.33301 -26.667 10.333 -32 21c-6.66699 13.333 -11 42 -13 86c-1.33301 36.667 13 58.334 43 65.001c51.333 46 99.333 93.667 144 143c106 117.333 186.333 233 241 347l-57 90c-2.66699 4.66699 -4 9 -4 13c0 18 13.667 25.333 41 22
c9.33301 -1.33301 22.333 10 39 34c32.667 48.667 72.334 111.667 119.001 189c8.66699 18 21.667 27 39 27c10 0 35.667 -10.333 77 -31c15.333 -8 23 -18 23 -30c0 -10 -4.66699 -26.667 -14 -50c-49.333 -120.667 -130.666 -261 -243.999 -421
c-96 -136.667 -181.333 -242 -256 -316c-10 -12 -2.66699 -19.667 22 -23c152.667 -18.667 281 -22.667 385 -12c50 186.667 102.667 343 158 469c16 36.667 34 58.667 54 66c3.33301 0.666992 21 1 53 1c20.667 0 31 -3.33301 31 -10
c0 -4.66699 -6.33301 -13.334 -19 -26.001c-24.667 -25.333 -54.667 -91.333 -90 -198c-32 -94 -58.667 -191.333 -80 -292c62 0 99.667 14.333 113 43c1.33301 6.66699 8.66602 13.667 21.999 21c15.333 0 25 -7 29 -21z" />
    <glyph glyph-name="five" unicode="5" horiz-adv-x="891" 
d="M840 870c0 -28 -14.667 -41.999 -44 -41.999c-8 0 -16.667 1 -26 3c-194.667 41.333 -334 62 -418 62c-22 0 -36.333 -7.66699 -43 -23c-71.333 -169.333 -115.666 -288 -132.999 -356c2 -3.33301 4 -7 6 -11c5.33301 0.666992 15 5 29 13c174.667 96 295 144 361 144
c50.667 0 86 -26 106 -78c50 -21.333 83.667 -39.333 101 -54c22 -19.333 33 -43.666 33 -72.999c0 -20.667 -5 -47.334 -15 -80.001c-45.333 -141.333 -126 -286.666 -242 -435.999c-99.333 -127.333 -208 -239 -326 -335c-110 -88.667 -191.667 -135.667 -245 -141
c-26.667 -2 -51.334 7 -74.001 27c-52 46 -86.333 82.333 -103 109c-5.33301 8.66699 -8 17 -8 25c0 18.667 8.66699 28 26 28c6 0 12.333 -2 19 -6c39.333 -24.667 74.333 -37 105 -37c45.333 0 119 39.667 221 119c108.667 84.667 207.334 183 296.001 295
c104.667 131.333 172.667 255.333 204 372c5.33301 20 8 38 8 54c0 58.667 -31 88 -93 88c-17.333 0 -36.333 -3 -57 -9c-93.333 -26 -197 -81.333 -311 -166c-2 -0.666992 -8.33301 -9.5 -19 -26.5s-20.334 -25.5 -29.001 -25.5c-6 0 -12.333 4 -19 12
c-27.333 32 -52 75.667 -74 131c-8.66699 22 -6 47 8 75c70.667 141.333 113.667 258.333 129 351c0 2 -6.5 16.667 -19.5 44s-19.5 48.666 -19.5 63.999c0 6 1.33301 12.667 4 20c10 24 45 31 105 21c172 -28.667 322.667 -43 452 -43c18 36 35 53.667 51 53
c15.333 -0.666992 25.5 -2.33398 30.5 -5.00098s8.5 -11 10.5 -25c8.66699 -52 13 -98 13 -138z" />
    <glyph glyph-name="six" unicode="6" horiz-adv-x="924" 
d="M870 598c-18 -96 -61.3301 -202.331 -129.997 -318.998c-64.667 -109.333 -130.334 -193.333 -197.001 -252c-42.667 -38 -92.334 -57 -149.001 -57c-36.667 0 -71 7.33301 -103 22c-153.333 14 -230 66.667 -230 158c0 210.667 41 425 123 643
c69.333 184.667 156 344.667 260 480c96 126 173.333 189.667 232 191c42 1.33301 102 -27.334 180 -86.001c10 -7.33301 15 -15.333 15 -24c0 -15.333 -8.33301 -21 -25 -17c-36.667 8.66699 -81.667 6 -135 -8c-41.333 -10.667 -102 -70 -182 -178
c-90.667 -122.667 -165.667 -259.667 -225 -411c-72.667 -186.667 -109 -369 -109 -547c0 -81.333 27 -129.333 81 -144c11.333 -2.66699 23 -4 35 -4c43.333 0 87.666 17 132.999 51c53.333 40 113.333 120.333 180 241s108 224 124 310c2.66699 17.333 4 32 4 44
c0 34 -12.667 51 -38 51c-12.667 0 -36.334 -5.66699 -71.001 -17c-82.667 -26.667 -161.667 -63 -237 -109c-6 -3.33301 -12.333 -5 -19 -5c-21.333 0 -32 9.66699 -32 29c0 8.66699 4.66699 16.667 14 24c79.333 61.333 162.333 110.333 249 147
c26.667 11.333 50.334 17 71.001 17c33.333 0 65 -20.667 95 -62c45.333 -18 70 -28.333 74 -31c15.333 -10.667 23 -28.334 23 -53.001c0 -18 -3.66699 -46 -11 -84z" />
    <glyph glyph-name="seven" unicode="7" horiz-adv-x="838" 
d="M893 930c3.33301 -35.333 -1.99805 -61.334 -15.998 -78.001c-1.33301 -1.33301 -18 -13 -50 -35c-29.333 -20 -135.333 -203.333 -318 -550c-186.667 -354.667 -298.334 -589.667 -335.001 -705l-31 -86c-9.33301 -25.333 -13.333 -46.666 -12 -63.999
c2 -28.667 -2 -43 -12 -43c-6.66699 0 -16.334 5.66699 -29.001 17c-29.333 25.333 -57.333 62 -84 110c-10.667 19.333 -16 35.333 -16 48c0 22 13 56 39 102l195 346l501 835c-97.333 19.333 -216.666 26.333 -357.999 21
c-85.333 -3.33301 -148.333 -47.666 -189 -132.999c-10.667 -23.333 -25.334 -35 -44.001 -35c-15.333 0 -23 9.66699 -23 29c0 4.66699 0.666992 10 2 16c18.667 85.333 40.334 159.666 65.001 222.999c16 40.667 46.667 61 92 61c20 0 46.667 -2.66699 80 -8
c92 -13.333 229.333 -31 412 -53c12 32 19.333 49.333 22 52c8.66699 12 24.334 18 47.001 18c23.333 0 38.666 -5 45.999 -15s12.666 -34.333 15.999 -73z" />
    <glyph glyph-name="eight" unicode="8" horiz-adv-x="973" 
d="M1022 1124c-46 -51.333 -119.169 -118.335 -219.502 -201.002s-158.833 -133.667 -175.5 -153l115 -88c44 -34 82.667 -70.333 116 -109c30.667 -35.333 46 -77 46 -125c0 -88 -47.333 -175.333 -142 -262c-157.333 -143.333 -317.666 -215 -480.999 -215
c-42 0 -80.333 30.667 -115 92l-112 88c-33.333 30.667 -50 62.334 -50 95.001c0 26.667 10.333 58 31 94c38 65.333 117 148 237 248l222 182c-95.333 65.333 -142.666 146 -141.999 242c1.33301 146 93 288.667 275 428c30.667 23.333 57.667 35 81 35
c32.667 0 73.667 -24 123 -72c9.33301 -8.66699 14 -16.334 14 -23.001c0 -12.667 -9.33301 -19 -28 -19c-4 0 -10.333 0.666992 -19 2s-15.334 2 -20.001 2c-73.333 0 -144.666 -50.667 -213.999 -152c-63.333 -91.333 -95 -170.666 -95 -237.999
c0 -31.333 10.333 -60.666 31 -87.999l55 -60c91.333 78 172 157 242 237c82 93.333 125 163.333 129 210c0.666992 7.33301 1 14.333 1 21c0 31.333 -15.333 58.333 -46 81c-8 7.33301 -12 16 -12 26c0 20.667 10.333 31 31 31c8.66699 0 18 -3.33301 28 -10
c98 -66 147 -127.333 147 -184c0 -36.667 -17.667 -75 -53 -115zM787.998 505.998c0 54 -74.333 121.667 -223 203c-45.333 -38 -89.333 -78.333 -132 -121c-101.333 -101.333 -186.333 -206 -255 -314c-16 -24.667 -24 -49.667 -24 -75c0 -67.333 53.667 -101 161 -101
c94.667 0 197.167 47.5 307.5 142.5s165.5 183.5 165.5 265.5z" />
    <glyph glyph-name="nine" unicode="9" horiz-adv-x="932" 
d="M909 737c-45.333 -275.333 -155.168 -565.33 -329.501 -869.997s-318.5 -460.334 -432.5 -467.001c-56 -3.33301 -124.667 28.667 -206 96c-10 8.66699 -15 18 -15 28c0 16.667 10.667 25 32 25c4 0 8.33301 -0.666992 13 -2c64.667 -10.667 111.334 -10.667 140.001 0
c116.667 46 247.334 197 392.001 453c147.333 260.667 234.333 500.334 261 719.001c1.33301 13.333 2 26 2 38c0 50 -12.167 89.333 -36.5 118s-55.166 43 -92.499 43c-40.667 0 -80.334 -16.667 -119.001 -50c-75.333 -64 -144.333 -142.667 -207 -236
c-78 -116.667 -123 -226.334 -135 -329.001c-6 -50.667 13.333 -76 58 -76c20.667 0 45.667 6.33301 75 19c71.333 30.667 151.333 77 240 139c12.667 8.66699 24 13 34 13c13.333 0 20 -5.66699 20 -17s-7 -24.333 -21 -39c-98.667 -105.333 -174 -174.333 -226 -207
c-26.667 -16.667 -51.667 -25 -75 -25c-34 0 -77.667 20.667 -131 62l-69 19c-32 13.333 -48 42.666 -48 87.999c0 19.333 2.66699 41.666 8 66.999c21.333 102 74.333 217.333 159 346c80 122 156 208.667 228 260c47.333 34 85.666 51 114.999 51c19.333 0 48 -8 86 -24
c2.66699 4.66699 7.66699 8 15 10c20.667 4.66699 53.667 -2 99 -20c68 -27.333 113.833 -52.333 137.5 -75s35.5 -52 35.5 -88c0 -17.333 -2.33301 -40.333 -7 -69z" />
    <glyph glyph-name="colon" unicode=":" horiz-adv-x="410" 
d="M293 608c17.333 -6 26.001 -17.333 26.001 -34c0 -14.667 -13.333 -53 -40 -115c-22 -50 -45.667 -75 -71 -75c9.33301 0 -14.334 3 -71.001 9c-7.33301 0.666992 -12.333 5 -15 13c-2.66699 7.33301 0.333008 12 9 14c32.667 74 54 128.667 64 164
c7.33301 28 17.333 42 30 42c11.333 0 34 -6 68 -18zM156.001 199c16.667 -6 25.001 -17.334 25.001 -34.001c0 -14 -13.333 -52.667 -40 -116c-20.667 -49.333 -43.667 -74 -69 -74c9.33301 0 -14.667 3 -72 9c-8 0.666992 -13 4.66699 -15 12c-2.66699 7.33301 1 12 11 14
c16.667 40.667 37 95.334 61 164.001c7.33301 28 17.666 42 30.999 42c11.333 0 34 -5.66699 68 -17z" />
    <glyph glyph-name="semicolon" unicode=";" horiz-adv-x="410" 
d="M293 608c17.333 -6 26.001 -17.333 26.001 -34c0 -14.667 -13.333 -53 -40 -115c-22 -50 -45.667 -75 -71 -75c9.33301 0 -14.334 3 -71.001 9c-7.33301 0.666992 -12.333 5 -15 13c-2.66699 7.33301 0.333008 12 9 14c32.667 74 54 128.667 64 164
c7.33301 28 17.333 42 30 42c11.333 0 34 -6 68 -18zM244.001 229c5.33301 -9.33301 -1.66602 -31.665 -20.999 -66.998c-55.333 -104.667 -100.333 -211.334 -135 -320.001c14 -6.66699 8.5 -18 -16.5 -34s-48.833 -22.333 -71.5 -19c-10 1.33301 -15 10 -15 26
c0 19.333 10.333 66.666 31 141.999c30 107.333 58.667 179 86 215c12 15.333 27 26.333 45 33c61.333 21.333 93.666 29.333 96.999 24z" />
    <glyph glyph-name="less" unicode="&#x3c;" horiz-adv-x="606" 
d="M469 719c10.667 18.667 20.3301 28 28.9971 28c10.667 0 21.5 -13 32.5 -39s16.5 -42.667 16.5 -50c0 -14 -17.667 -28.667 -53 -44c-63.333 -25.333 -142.666 -53.333 -237.999 -84c-14 -2.66699 -10 -14.667 12 -36c78.667 -76 142.334 -147.667 191.001 -215
c16 -22.667 24 -37.334 24 -44.001c0 -7.33301 -10.667 -13.333 -32 -18c-16 -3.33301 -28.333 -5 -37 -5c-13.333 0 -24.333 12 -33 36c-13.333 37.333 -77.666 116.333 -192.999 237c-10 10.667 -26.333 21.667 -49 33c-15.333 8 -25.5 20.333 -30.5 37
s-7.5 26.667 -7.5 30c1.33301 5.33301 8 9 20 11c62.667 10.667 131 28.834 205 54.501s121.667 48.5 143 68.5z" />
    <glyph glyph-name="equal" unicode="=" horiz-adv-x="868" 
d="M815 639c0 -10 -4.66699 -27.666 -14 -52.999c-8.66699 -22.667 -17 -36.334 -25 -41.001s-25.667 -6 -53 -4c-146.667 9.33301 -283.334 14 -410.001 14c-68 0 -105.333 -6 -112 -18c-4.66699 -8 -12.667 -11 -24 -9c-11.333 2.66699 -15.666 9.66699 -12.999 21
c2 4.66699 6.66699 24.334 14 59.001c5.33301 29.333 37.333 41 96 35c106.667 -10.667 240 -16.667 400 -18c61.333 -0.666992 95.333 5.33301 102 18c5.33301 9.33301 13 13.666 23 12.999c10.667 -1.33301 16 -7 16 -17zM774 424.001
c0 -3.33301 -4.66699 -17.498 -14 -42.498s-17.333 -40.167 -24 -45.5c-9.33301 -8.66699 -27.333 -12 -54 -10c-146.667 9.33301 -283.334 14 -410.001 14c-68 0 -105.333 -6 -112 -18c-4.66699 -8 -12.667 -11 -24 -9c-11.333 2.66699 -15.666 9.66699 -12.999 21
c2 8 6.66699 31 14 69c3.33301 19.333 16.666 29.666 39.999 30.999c0.666992 0 19.334 -2 56.001 -6c106.667 -10.667 240 -16.667 400 -18c61.333 -0.666992 95.333 5.33301 102 18c5.33301 9.33301 13 13.666 23 12.999c10.667 -1.33301 16 -7 16 -17z" />
    <glyph glyph-name="greater" unicode="&#x3e;" horiz-adv-x="606" 
d="M533 376c-0.666992 -5.33301 -6.99707 -9.00195 -18.9971 -11.002c-62.667 -10.667 -130.667 -28.667 -204 -54c-75.333 -26 -123.333 -49 -144 -69c-10.667 -18.667 -20.334 -28 -29.001 -28c-10.667 0 -21.667 13 -33 39s-17 42.333 -17 49
c0 14.667 18 29.334 54 44.001c63.333 26 142.666 54 237.999 84c14 2.66699 10 15 -12 37c-78.667 76 -142.334 147.667 -191.001 215c-16 22.667 -24 37 -24 43c0 8 10.667 14 32 18c16 3.33301 28.333 5 37 5c13.333 0 24.333 -11.667 33 -35
c13.333 -37.333 77.333 -116.666 192 -237.999c10 -10.667 26.333 -21.667 49 -33c16 -7.33301 26.5 -19.5 31.5 -36.5s7.16699 -26.833 6.5 -29.5z" />
    <glyph glyph-name="question" unicode="?" horiz-adv-x="956" 
d="M971 1184c0 -64.667 -52.3301 -173.667 -156.997 -327c-92.667 -135.333 -190.667 -257 -294 -365c5.33301 1.33301 25 8 59 20c29.333 10.667 46.666 16 51.999 16c18.667 0 28 -9.33301 28 -28c0 -13.333 -8.66699 -23 -26 -29c-110 -38.667 -185.667 -77 -227 -115
c-14.667 -12.667 -27.334 -19 -38.001 -19c-20.667 0 -41.667 31 -63 93c-1.33301 4 -2 7.66699 -2 11c0 12 19 33.667 57 65c99.333 81.333 197 187.333 293 318c103.333 140.667 158.666 250.334 165.999 329.001c6.66699 66.667 -24.666 100 -93.999 100
c-19.333 0 -38.333 -4 -57 -12c-146.667 -62 -273 -154.667 -379 -278c-9.33301 -10.667 -14 -23 -14 -37c0 -8 1.66699 -18.333 5 -31s5 -21.667 5 -27c0 -16 -8.66699 -24 -26 -24c-14.667 0 -29.334 8.66699 -44.001 26c-44 54 -66 90 -66 108s11.667 38.667 35 62
c156 157.333 302.333 260.666 439 309.999c32.667 11.333 60 17 82 17c37.333 0 77.333 -29 120 -87c36 -6 67.667 -17 95 -33c34 -18.667 51 -39.667 51 -63zM479.003 147c14 -10 21.002 -20.667 21.002 -32c0 -16.667 -29.333 -51 -88 -103c-34.667 -30 -62 -45 -82 -45
c-8.66699 0 -44.334 15 -107.001 45c-5.33301 2 -9.33301 5.5 -12 10.5s-3 9.16699 -1 12.5c2.66699 4 7.66699 5.33301 15 4c34 30 77.667 72.333 131 127c15.333 19.333 27.666 29 36.999 29c13.333 0 42 -16 86 -48z" />
    <glyph glyph-name="at" unicode="@" horiz-adv-x="1217" 
d="M856 440c-16.667 -14.667 -27.3389 -21.9971 -32.0059 -21.9971c-6 0 -17.667 6.33301 -35 19c-14.667 11.333 -20.334 27.333 -17.001 48c21.333 124.667 46 223 74 295c-41.333 -66.667 -96.666 -139.334 -165.999 -218.001c-61.333 -70 -105.666 -114 -132.999 -132
c-20.667 -13.333 -35.667 -20 -45 -20c-8.66699 0 -21 6.66699 -37 20c-35.333 19.333 -51 45.333 -47 78c21.333 167.333 111.333 325 270 473c23.333 21.333 46.666 31.666 69.999 30.999c16 -0.666992 48 -22.667 96 -66c4.66699 -4 7 -8 7 -12
c0 -13.333 -8.33301 -16.666 -25 -9.99902c-34 12.667 -60.667 12 -80 -2c-44 -32.667 -92.667 -89.334 -146 -170.001c-62 -93.333 -99.333 -176.666 -112 -249.999c-3.33301 -18.667 1.33398 -28 14.001 -28c16.667 0 35.667 10.667 57 32c51.333 50 107 114.333 167 193
s99.333 138.667 118 180l25 63c6 22 12.667 33 20 33c2.66699 0 18.334 -9.66699 47.001 -29c22 -17.333 29.667 -35 23 -53c-36.667 -100 -70.334 -227 -101.001 -381c22 12.667 53 32.334 93 59.001c50 42 84 81 102 117c54 108 78.667 218 74 330
c-3.33301 66.667 -17.333 118 -42 154c-21.333 30.667 -58 59 -110 85c-35.333 18.667 -75.666 27 -120.999 25c-180.667 -6.66699 -346.334 -173.334 -497.001 -500.001c-74.667 -161.333 -112 -301.333 -112 -420c0 -36.667 3 -72 9 -106c10 -53.333 89.667 -80 239 -80
c70.667 0 128.334 7.66699 173.001 23c60.667 20 122.5 54.167 185.5 102.5s109.5 98.166 139.5 149.499c11.333 18.667 22 30.334 32 35.001c9.33301 4.66699 14 1 14 -11c0 -8.66699 -3 -20.334 -9 -35.001c-33.333 -90 -85 -163.667 -155 -221
c-25.333 -20.667 -58.666 -42.334 -99.999 -65.001c-48 -26.667 -75.667 -42.667 -83 -48c-26.667 -18 -79.334 -27 -158.001 -27c-98.667 0 -162 17.333 -190 52c-110.667 6 -176 64 -196 174c-3.33301 16 -5 36.333 -5 61c0 153.333 33 303 99 449
c63.333 141.333 144.333 264.333 243 369c111.333 118.667 217.333 180 318 184c31.333 1.33301 63.333 -2.83398 96 -12.501s46.334 -20.5 41.001 -32.5c114 -27.333 191.333 -56.666 232 -87.999c60.667 -46 89.334 -119 86.001 -219
c-5.33301 -152.667 -65.666 -286.667 -180.999 -402l-108 -77c-27.333 -20.667 -67.666 -53 -120.999 -97z" />
    <glyph glyph-name="A" unicode="A" horiz-adv-x="1311" 
d="M1280 1311c-41.333 -59.333 -80.3301 -218.336 -116.997 -477.003c-32 -228.667 -47 -407 -45 -535c2.66699 -128 23.667 -192 63 -192c7.33301 0 17.833 2.66699 31.5 8s24.167 8 31.5 8c13.333 0 20 -5 20 -15c0 -7.33301 -5 -15.333 -15 -24
c-33.333 -29.333 -84.333 -62 -153 -98c-16.667 -8.66699 -31 -13 -43 -13c-65.333 0 -88.666 165.333 -69.999 496c-160 -9.33301 -311 -22.333 -453 -39l-198 -242c35.333 4 48.666 6 39.999 6c32 0 56.667 -32.667 74 -98c4.66699 -15.333 7 -27.333 7 -36
c0 -16 -7 -24 -21 -24c-6.66699 0 -16.5 1.66699 -29.5 5s-23.167 5 -30.5 5c-56.667 0 -133 -30.333 -229 -91l-43 -27c-5.33301 0 -15.333 5 -30 15c-31.333 21.333 -53.333 47 -66 77c-8 20.667 3.66699 41.334 35 62.001c41.333 26.667 98 71.667 170 135
s119 109 141 137c-6 60.667 -9 92.334 -9 95.001c1.33301 38 15.666 62.667 42.999 74c24 10 66.667 16.667 128 20c165.333 201.333 298.333 398 399 590c-32.667 -17.333 -91.334 -39.666 -176.001 -66.999c-135.333 -44 -228.666 -75 -279.999 -93
c-72.667 -26 -109 -71.333 -109 -136c0 -13.333 1.33301 -28 4 -44c4 -24.667 -2.33301 -37 -19 -37c-12 0 -20.667 5.33301 -26 16c-36.667 76.667 -58.334 130.667 -65.001 162c-6 28 -9 42.667 -9 44c0 23.333 11 44.666 33 63.999c40 34 116 59.333 228 76
c168 25.333 312.667 65 434 119c14.667 14.667 22.667 23 24 25c3.33301 4.66699 6.83301 13.667 10.5 27s10.167 20 19.5 20c15.333 0 38.333 -16.333 69 -49c10 -11.333 15 -22.666 15 -33.999c0 -6.66699 -11.333 -29.667 -34 -69
c-49.333 -87.333 -115.333 -193 -198 -317c-92 -138.667 -163.333 -237 -214 -295c158.667 0 283 4 373 12c9.33301 93.333 29.666 226.333 60.999 399l48 254c10 72 58.333 124.667 145 158c13.333 5.33301 24.333 8 33 8c14.667 0 22 -6.33301 22 -19
c0 -12 -6.66699 -27.333 -20 -46z" />
    <glyph glyph-name="B" unicode="B" horiz-adv-x="1325" 
d="M1266 1165c-10 -173.333 -70.3291 -315.332 -180.996 -425.999c-24.667 -24.667 -57.667 -47 -99 -67c-37.333 -18.667 -68.333 -29 -93 -31c159.333 -98 267.333 -185.333 324 -262c24.667 -34 37 -65 37 -93c0 -39.333 -25.333 -91.666 -76 -156.999
c6.66699 -11.333 10 -22.333 10 -33c0 -82 -151.667 -123 -455 -123c-63.333 0 -131.833 2.16699 -205.5 6.5s-112.834 20.833 -117.501 49.5c-5.33301 26.667 0 62.667 16 108c7.33301 22 20.666 33 39.999 33c-8 0 14 -3.33301 66 -10
c15.333 -2 31.166 -16.167 47.499 -42.5s44.5 -41.5 84.5 -45.5c25.333 -2.66699 54.333 -4 87 -4c142.667 0 252.667 17.667 330 53c38.667 17.333 58 43.333 58 78c0 40.667 -22.667 85 -68 133c-29.333 31.333 -87.666 78.666 -174.999 141.999
c-95.333 68.667 -161.333 108.667 -198 120c-66.667 0 -100 12.333 -100 37c0 8.66699 29.333 36 88 82c14 10.667 27.667 16 41 16s29 -5.33301 47 -16c16 -8.66699 31.667 -17.667 47 -27c65.333 3.33301 127 39.666 185 108.999c31.333 38 61.666 92.667 90.999 164
c33.333 80.667 50 149.334 50 206.001c0 38 -11.333 62 -34 72c-14 6.66699 -41 8.66699 -81 6c-26.667 -2 -71 -10.333 -133 -25c-70.667 -16.667 -123.334 -33 -158.001 -49c-57.333 -206.667 -131.666 -431.334 -222.999 -674.001
c-82.667 -220.667 -139.334 -354.334 -170.001 -401.001c-20 -30 -34.667 -48 -44 -54c-12 -8 -41.667 -16.667 -89 -26c-32 -6 -48 -3.66699 -48 7c0 5.33301 1.66699 12.666 5 21.999c38 106.667 57 185.334 57 236.001c0 33.333 3 52.333 9 57
c2.66699 2 30.667 12.333 84 31c18 6 29.333 -1.66699 34 -23c59.333 120.667 117 265 173 433c48 144 80 257 96 339c-178 -76 -299.667 -155.667 -365 -239c-16.667 -22 -25 -46.333 -25 -73c0 -16.667 5 -45 15 -85c2 -9.33301 3 -17 3 -23
c0 -12.667 -4.33301 -19 -13 -19c-11.333 0 -23.666 7.66699 -36.999 23c-66.667 78.667 -100 138 -100 178c0 14.667 11.333 36 34 64c44 52.667 120 113 228 181c106 66.667 202.667 115.667 290 147c6.66699 44.667 9 72.667 7 84c-4 18.667 1.66699 28 17 28
c7.33301 0 16 -4.66699 26 -14c29.333 -29.333 42 -50.333 38 -63c146 42 246.333 62.333 301 61c40 -1.33301 72 -12.666 96 -33.999c15.333 -14.667 34.666 -43.667 57.999 -87c20.667 1.33301 37 -3.66699 49 -15c14 -14 20.333 -35.667 19 -65z" />
    <glyph glyph-name="C" unicode="C" horiz-adv-x="1034" 
d="M1055 1153c-32 -130 -69.001 -230.334 -111.001 -301.001c-19.333 -33.333 -38.333 -50 -57 -50c-7.33301 0 -16.333 1.66699 -27 5c-50.667 15.333 -76 33.666 -76 54.999c0 10.667 7 17.667 21 21c58.667 88 93.334 193.667 104.001 317
c-36.667 32.667 -71.334 49 -104.001 49c-69.333 0.666992 -151.333 -60.333 -246 -183c-87.333 -114.667 -163 -250.667 -227 -408c-66.667 -164 -98.667 -300.667 -96 -410c0.666992 -63.333 19.667 -110.666 57 -141.999c27.333 -22.667 58.333 -34 93 -34
c20 0 43 4 69 12c64 20 138 58.667 222 116c80 54.667 146.667 110.334 200 167.001c16.667 18 26.667 41 30 69c2 14.667 8.66699 22 20 22c9.33301 0 16.333 -6 21 -18c24 -60 36 -101.667 36 -125c0 -22 -9 -42.667 -27 -62c-12 -12 -40.333 -35 -85 -69
c-141.333 -106 -262.666 -172 -363.999 -198c-31.333 -8 -60 -12 -86 -12c-54.667 0 -96.334 18.333 -125.001 55c-130 48.667 -195 123 -195 223c0 161.333 42.333 334.666 127 519.999c72.667 160.667 162.334 302 269.001 424c102.667 116.667 186 177.334 250 182.001
c23.333 2 50.333 -7.66699 81 -29c4 -2.66699 35 -27.667 93 -75c3.33301 26.667 12.333 40 27 40c16 0 43 -14.667 81 -44c24 -18.667 36 -36.667 36 -54c0 -11.333 -3.66699 -32.333 -11 -63z" />
    <glyph glyph-name="D" unicode="D" horiz-adv-x="1311" 
d="M1380 1073c-20.667 -154.667 -70.668 -321.67 -150.001 -501.003c-72 -163.333 -152 -303.166 -240 -419.499s-158.667 -174.833 -212 -175.5c-66 0 -160 41 -282 123c-9.33301 6.66699 -14 14.334 -14 23.001c0 21.333 12.333 32 37 32
c6.66699 0 13.334 -1.66699 20.001 -5c50 -31.333 105.333 -48.666 166 -51.999c83.333 -4 190 118.333 320 367c128.667 245.333 203.334 464.333 224.001 657c6.66699 62 -26.666 108 -99.999 138c-18 6.66699 -33 9.33398 -45 8.00098
c-128.667 -18 -253 -64.667 -373 -140c-62.667 -149.333 -126 -326 -190 -530c-70 -222.667 -120.667 -415.334 -152 -578.001c-6.66699 -33.333 -20.667 -50 -42 -50c-8 0 -17.333 2.33301 -28 7c-34.667 18 -57.334 32.667 -68.001 44c-14.667 15.333 -22 36.333 -22 63
c0 56 9 123 27 201c4.66699 19.333 11.667 29 21 29c8.66699 0 31.667 -15.333 69 -46c90.667 308.667 176.667 573 258 793c-148.667 -93.333 -263.334 -183.333 -344.001 -270c-18.667 -20.667 -28 -44.667 -28 -72c0 -24.667 8 -52.667 24 -84s24 -49.333 24 -54
c0 -11.333 -7.66699 -17 -23 -17c-13.333 0 -23.333 3.66699 -30 11c-83.333 98 -125 165.667 -125 203c0 39.333 26.667 83 80 131c112.667 102 276 214.667 490 338c35.333 82.667 61 124 77 124c12 0 36.667 -18 74 -54l110 50c30.667 13.333 55.667 20 75 20
c32 0 75 -18 129 -54c2.66699 2.66699 7 4 13 4c37.333 0 94.333 -34.667 171 -104c41.333 -38 62 -79 62 -123c0 -10.667 -1 -23 -3 -37z" />
    <glyph glyph-name="E" unicode="E" horiz-adv-x="1235" 
d="M1323 1235c5.33301 -28.667 8.00098 -49.6699 8.00098 -63.0029c0 -15.333 -4 -27.333 -12 -36c-1.33301 -1.33301 -14.333 -11.333 -39 -30c-20 -15.333 -49.333 -18 -88 -8c-123.333 31.333 -264 60 -422 86c-45.333 -184 -78.666 -322.667 -99.999 -416
c73.333 6 199 13.667 377 23c37.333 0.666992 62.333 -11.666 75 -36.999c2 -4 7.66699 -26.667 17 -68c0.666992 -5.33301 1 -10 1 -14c0 -22.667 -26.333 -38.334 -79 -47.001c-56 -10 -88 -7 -96 9c-9.33301 20 -27.333 30 -54 30c-148 0 -238.667 -3 -272 -9l-80 -249
c-23.333 -68 -43.833 -115.167 -61.5 -141.5s-46.167 -53.166 -85.5 -80.499c23.333 1.33301 48.666 2 75.999 2c110 0 292 -11.333 546 -34c20.667 -2 33.167 8.16699 37.5 30.5s11.166 33.833 20.499 34.5c18 1.33301 29.333 -6 34 -22l27 -115
c3.33301 -13.333 -2.66699 -27 -18 -41l-42 -34c-13.333 -11.333 -25.333 -16.666 -36 -15.999l-58 15c-143.333 38.667 -304 58 -482 58c-72.667 0 -150.667 -3 -234 -9c-56 -48.667 -91 -73 -105 -73c-11.333 0 -18.666 8.66699 -21.999 26
c-12.667 62.667 -19 97.667 -19 105c0 25.333 14.333 42.333 43 51c26 8 84 14 174 18c70 129.333 124 257 162 383c-4 12 -14.333 36 -31 72c-10 24 -15 41.333 -15 52c0 25.333 25.667 44.333 77 57c10 2.66699 21 5.33398 33 8.00098l114 450
c-95.333 16.667 -166 25 -212 25c-30.667 0 -61.667 -2 -93 -6c-73.333 -10.667 -110 -59.667 -110 -147c0 -39.333 7.33301 -88 22 -146c6.66699 -26 1 -39 -17 -39c-12.667 0 -21.334 8 -26.001 24c-28 92 -42 169.333 -42 232c0 44.667 6.66699 87.667 20 129
c19.333 61.333 77 92 173 92c70.667 0 176.667 -13.667 318 -41c34.667 25.333 58.667 38 72 38c9.33301 0 14 -6 14 -18c0 -8.66699 -2.66699 -20.667 -8 -36c26.667 -8 158.334 -38.667 395.001 -92c30.667 -7.33301 54.667 4 72 34c7.33301 10.667 15.666 16 24.999 16
c13.333 0 22 -10.667 26 -32z" />
    <glyph glyph-name="F" unicode="F" horiz-adv-x="1229" 
d="M1419 1276c1.33301 -6 2.00098 -11.3311 2.00098 -15.998c0 -19.333 -11.667 -32.333 -35 -39c-1.33301 -0.666992 -25 -4.33398 -71 -11.001c-103.333 -14.667 -230.333 -28.334 -381 -41.001c-39.333 -84 -96 -256 -170 -516c126 11.333 253.667 18.333 383 21
c38.667 0.666992 64.334 -11.666 77.001 -36.999c2.66699 -5.33301 7.66699 -27.333 15 -66c1.33301 -5.33301 2 -10 2 -14c0 -22.667 -26 -38.334 -78 -47.001c-37.333 -6.66699 -59.666 -9.66699 -66.999 -9c-12.667 0.666992 -22.334 7 -29.001 19
c-9.33301 18 -27 27 -53 27c-145.333 0 -240.333 -2.66699 -285 -8c-24 -61.333 -66.333 -226.666 -127 -495.999c-11.333 -50 -27.666 -75 -48.999 -75c-14 0 -42.667 7.33301 -86 22c-26 8.66699 -35.667 38 -29 88c9.33301 64 22.333 126 39 186
c8 28 35.333 37.667 82 29c15.333 34.667 33.666 90 54.999 166c-28 72 -42 109 -42 111c0 4 0.333008 8 1 12c4 22 37 39.667 99 53c3.33301 11.333 58 185.333 164 522c-105.333 -8 -208.333 -24 -309 -48c-114 -26.667 -189.333 -56.334 -226 -89.001
c-38.667 -34.667 -58 -69.667 -58 -105c0 -38 22 -98 66 -180c4.66699 -8 7 -16 7 -24c0 -16.667 -7.66699 -25 -23 -25c-10.667 0 -20.334 6.33301 -29.001 19c-52.667 75.333 -87 134 -103 176c-11.333 29.333 -19.333 71.666 -24 126.999
c-6.66699 82 59.666 142 198.999 180c182.667 50 368.334 83.333 557.001 100c21.333 43.333 37.333 65 48 65c15.333 0 41.666 -16.667 78.999 -50c17.333 0 71.333 6.66699 162 20c15.333 2.66699 31.333 14.334 48 35.001c14.667 19.333 49.667 30.333 105 33
c30.667 1.33301 51.667 -10 63 -34c1.33301 -3.33301 8.33301 -30.333 21 -81z" />
    <glyph glyph-name="G" unicode="G" horiz-adv-x="1237" 
d="M1210 690c20 -8.66699 29.998 -20.332 29.998 -34.999c0 -17.333 -13.333 -28 -40 -32c-46 -7.33301 -74.667 -20 -86 -38c-5.33301 -8.66699 -15.666 -47.334 -30.999 -116.001c-57.333 -258.667 -122 -478.334 -194 -659.001c-23.333 -58 -56 -87 -98 -87
c-36.667 0 -107.667 33.667 -213 101c-10.667 6.66699 -16 14.334 -16 23.001c0 14 9.66699 21 29 21c7.33301 0 19.666 -3.33301 36.999 -10s32 -10 44 -10c34 0 65.333 21.333 94 64c68.667 102.667 141.667 297.334 219 584.001c-82 -94.667 -174 -181.334 -276 -260.001
c-136.667 -105.333 -248 -158 -334 -158c-49.333 0 -89.666 17.667 -120.999 53c-53.333 32 -90.333 61 -111 87c-30 37.333 -43.667 82.666 -41 135.999c8 143.333 62 299 162 467c86.667 145.333 190 274 310 386c116 107.333 207.333 163 274 167
c34 2 86 -22.667 156 -74c5.33301 36 15 54 29 54c13.333 0 37 -8.33301 71 -25c12.667 -6 20 -12.667 22 -20c4 -13.333 2.66699 -44 -4 -92c-10 -78 -29.667 -153.333 -59 -226c-8 -20 -22.667 -30 -44 -30c-12 0 -36.333 4 -73 12c-23.333 4.66699 -35 14.334 -35 29.001
c0 11.333 6.66699 17 20 17c3.33301 0 6.33301 -0.333008 9 -1c25.333 62.667 41 130.334 47 203.001c2.66699 28 -13.666 42 -48.999 42c-33.333 0 -71.666 -11.333 -114.999 -34c-126 -68 -249.833 -187.667 -371.5 -359s-193.5 -329.666 -215.5 -474.999
c-4 -22.667 -6 -43.334 -6 -62.001c0 -66 27 -117 81 -153c14.667 -9.33301 32.334 -14 53.001 -14c76.667 0 185.667 58.333 327 175c107.333 87.333 198.666 175.666 273.999 264.999c-136.667 -10.667 -212.667 -16 -228 -16c-34.667 0 -59 5.66699 -73 17
c-10.667 8.66699 -21.667 29 -33 61c-4 10.667 -6 19 -6 25c0 8 3.66699 12 11 12c0.666992 0 22 -7 64 -21c18 -6 71.667 -7 161 -3c82.667 4 139 8.33301 169 13c14 24.667 31.667 37 53 37c23.333 0 65.666 -13.667 126.999 -41z" />
    <glyph glyph-name="H" unicode="H" horiz-adv-x="1436" 
d="M1714 1341c16 -9.33301 24.0049 -18.666 24.0049 -27.999c0 -12.667 -13.333 -19 -40 -19c-40.667 0 -57 0.666992 -49 2c-21.333 -2.66699 -42 -13.334 -62 -32.001c-47.333 -45.333 -102 -146 -164 -302c-78.667 -198 -151.667 -448.333 -219 -751l68 119
c13.333 22.667 27 34 41 34c8 0 12 -5.33301 12 -16c0 -8 -2.66699 -19 -8 -33c-36.667 -86.667 -55.667 -132 -57 -136c-25.333 -64 -40.666 -113.333 -45.999 -148c-5.33301 -40 -15.333 -60 -30 -60c-11.333 0 -42 13.667 -92 41c-13.333 7.33301 -20 32.333 -20 75
c0 80 23.667 222.333 71 427c-250 15.333 -437 12 -561 -10c-28.667 -74 -70.5 -169.833 -125.5 -287.5s-93.833 -194.5 -116.5 -230.5c-20.667 -33.333 -46 -45 -76 -35c-66.667 22 -100 43 -100 63c0 11.333 4.66699 27 14 47c17.333 29.333 37.333 69 60 119
c1.33301 6 2 30.667 2 74c0 20 6 30 18 30c8.66699 0 25 -13.667 49 -41c16.667 -18 23.667 -33.333 21 -46c39.333 46 76.666 119 111.999 219c-35.333 73.333 -53 120 -53 140c0 44 47 64.667 141 62c32.667 72.667 73.667 176.667 123 312
c51.333 141.333 83.666 239.666 96.999 294.999c-10 -14 -63 -37.667 -159 -71c-120.667 -41.333 -201 -71.666 -241 -90.999c-71.333 -35.333 -107 -75 -107 -119c0 -18.667 5 -44 15 -76c1.33301 -4 2 -8 2 -12c0 -14 -7 -21 -21 -21c-12 0 -21.333 5.66699 -28 17
c-16 27.333 -31.667 64 -47 110c-18 52 -26.333 91 -25 117c3.33301 50.667 76.333 91.667 219 123l285 61c63.333 18 107.666 46.333 132.999 85c14.667 21.333 24.667 32 30 32c10 0 29.333 -10.667 58 -32c10.667 -8 16 -21.333 16 -40
c0 -34.667 -32.667 -138.334 -98 -311.001l-155 -385c181.333 -17.333 362.666 -19.333 543.999 -6c43.333 160.667 92.666 310.667 147.999 450c89.333 224 167.666 338.333 234.999 343c40.667 2.66699 94.667 -16.666 162 -57.999z" />
    <glyph glyph-name="I" unicode="I" horiz-adv-x="848" 
d="M877 1024c-23.333 -194 -84.668 -409.999 -184.001 -647.999c-116.667 -280.667 -229.667 -421.667 -339 -423c-66 -0.666992 -146.333 34.666 -241 105.999c-7.33301 6 -11 13.667 -11 23c0 23.333 10.667 35 32 35c5.33301 0 10.666 -1.33301 15.999 -4
c57.333 -29.333 106.333 -44.333 147 -45c88.667 -2.66699 186.334 129 293.001 395c102 256.667 156.667 486.667 164 690c2 66 -30.667 99 -98 99c-10.667 0 -22.334 -1 -35.001 -3c-52 -7.33301 -111 -48.666 -177 -123.999c-73.333 -84 -125 -179.667 -155 -287
c-4 -14 -6 -27.333 -6 -40c0 -24.667 8.33301 -47.334 25 -68.001l46 -46c7.33301 -7.33301 11 -14 11 -20c0 -12.667 -10 -19 -30 -19c-8 0 -14.667 1.33301 -20 4c-57.333 34 -96.666 61.667 -117.999 83c-25.333 26 -38 55.667 -38 89c0 31.333 12 74.333 36 129
c34.667 80.667 86.334 159.667 155.001 237c65.333 74 124 122 176 144c24 10.667 73.333 4.66699 148 -18c4.66699 6 11.667 9 21 9c26 0 77 -25 153 -75c34 -22 43.667 -96.333 29 -223z" />
    <glyph glyph-name="J" unicode="J" horiz-adv-x="893" 
d="M899 977c-32 -226.667 -102.332 -472.664 -210.999 -737.997c-130 -319.333 -253.667 -478.333 -371 -477c-67.333 1.33301 -146.333 44.333 -237 129c-7.33301 7.33301 -11 16.666 -11 27.999c0 20.667 8.33301 31 25 31c5.33301 0 11 -1.66699 17 -5
c63.333 -38.667 115 -59.334 155 -62.001c89.333 -5.33301 194.666 144.667 315.999 450c117.333 297.333 184 566.666 200 807.999c3.33301 44 -7.66699 74 -33 90c-21.333 13.333 -57.333 18.666 -108 15.999s-110.667 -41 -180 -115c-76 -82 -130.667 -176.667 -164 -284
c-4.66699 -15.333 -7 -30 -7 -44c0 -28.667 21.333 -66 64 -112c7.33301 -7.33301 11 -14 11 -20c0 -12.667 -10 -19 -30 -19c-8 0 -14.667 1.33301 -20 4c-100 64 -150 121.667 -150 173c0 32.667 13.333 77 40 133c38 78.667 92.667 155.334 164 230.001
c68 71.333 128 117.333 180 138c10 4 21 6 33 6c24 0 62 -9.33301 114 -28c4.66699 4.66699 11.667 7 21 7c26.667 0 77 -26.333 151 -79c26.667 -19.333 40 -66 40 -140c0 -36 -3 -76 -9 -120z" />
    <glyph glyph-name="K" unicode="K" horiz-adv-x="1503" 
d="M1468 1346c13.333 -13.333 20.002 -24.3301 20.002 -32.9971c0 -10.667 -14 -33.334 -42 -68.001c-73.333 -90.667 -181.333 -206.334 -324 -347.001c-136.667 -134.667 -229.334 -218.334 -278.001 -251.001l182 -259c92.667 -130.667 172.667 -218.334 240 -263.001
c29.333 -20 55.666 -30 78.999 -30s50.666 11.333 81.999 34c6.66699 4.66699 13 7 19 7c14 0 21 -7 21 -21c0 -8 -3 -16.333 -9 -25c-20 -31.333 -63.667 -77 -131 -137c-15.333 -14 -30.333 -21 -45 -21c-17.333 0 -37 9 -59 27c-82 65.333 -174 169.666 -276 312.999
c-106.667 150 -180.667 243 -222 279c-21.333 -8.66699 -38.333 -13 -51 -13c-23.333 0 -36.333 17.333 -39 52c-0.666992 10.667 -1 19.667 -1 27c0 28 7.5 48.5 22.5 61.5s45.5 24.5 91.5 34.5c16.667 3.33301 29.334 -1 38.001 -13
c78.667 60.667 167.667 142.334 267 245.001c98 100.667 157.333 171.334 178 212.001c-42 24.667 -63 45 -63 61c0 12.667 12 21.667 36 27c33.333 23.333 73 61 119 113c19.333 22 40 33 62 33c25.333 0 53 -15 83 -45zM879.002 1266
c-84 -150.667 -164.667 -327.668 -242 -531.001c-66.667 -174 -119.334 -343.333 -158.001 -508c-26 -110.667 -37.667 -179.667 -35 -207c4 -10.667 6 -20.334 6 -29.001c0 -14 -5.66699 -21 -17 -21c-14 0 -36.667 12 -68 36c-34.667 26 -52 47.333 -52 64
c0 10.667 3 26.334 9 47.001c54.667 192.667 122.667 396.667 204 612l174 436c-190.667 -46.667 -327 -102.667 -409 -168c-30 -23.333 -45 -45.666 -45 -66.999c0 -14.667 6.66699 -53.667 20 -117c4.66699 -20.667 -2.66602 -31 -21.999 -31
c-13.333 0 -23.666 6.33301 -30.999 19c-22.667 36 -46 88.333 -70 157c-4.66699 15.333 -7 29.333 -7 42c0 50 38.667 90.667 116 122c27.333 11.333 165.333 58 414 140c58.667 19.333 98.667 42.333 120 69c15.333 18.667 28.666 28 39.999 28c10.667 0 24 -6 40 -18
c18.667 -13.333 28 -24.666 28 -33.999c0 -8.66699 -5 -22.334 -15 -41.001z" />
    <glyph glyph-name="L" unicode="L" horiz-adv-x="1087" 
d="M1133 1225c0.666992 -103.333 -21.3301 -219.331 -65.9971 -347.998c-12 -34.667 -28.333 -52 -49 -52c1.33301 0 -17 2 -55 6c-32 4 -48 14 -48 30c0 7.33301 5.66699 14.666 17 21.999c15.333 26 31.333 74.333 48 145c18.667 80 26.667 145.667 24 197
c-2.66699 38.667 -22.334 58 -59.001 58c-20.667 0 -43.334 -9.33301 -68.001 -28c-82 -61.333 -162.667 -173.333 -242 -336c-76.667 -157.333 -166.667 -392.666 -270 -705.999c-15.333 -46 -40 -74 -74 -84c176 0 362.333 -10.333 559 -31c30 -2.66699 49 -1 57 5
c3.33301 2.66699 11.666 18.334 24.999 47.001c8 17.333 16.333 26 25 26s16.667 -7.33301 24 -22c28.667 -55.333 43 -94.333 43 -117c0 -18.667 -13 -40 -39 -64c-28.667 -26 -50.334 -39 -65.001 -39c-11.333 0 -29.333 3.66699 -54 11c-156 43.333 -328 65 -516 65
c-51.333 0 -101.666 -2 -150.999 -6c-33.333 -2.66699 -53 -6.33398 -59 -11.001l-19 -32c-17.333 -29.333 -38 -44 -62 -44c-15.333 0 -25.333 7.33301 -30 22c-19.333 55.333 -29 90.666 -29 105.999c-0 50 72.333 78 217 84c112.667 396.667 232.334 711 359.001 943
c108 198 200 302 276 312c21.333 3.33301 76.666 -16.334 165.999 -59.001c22 1.33301 38.667 2 50 2c30 0 48.667 -6.66699 56 -20c5.33301 -10.667 8.33301 -38 9 -82z" />
    <glyph glyph-name="M" unicode="M" horiz-adv-x="1907" 
d="M2120 1296c4.66699 -4 7.00195 -8.66797 7.00195 -14.001c0 -13.333 -10.667 -20 -32 -20c-4 0 -10.167 0.666992 -18.5 2s-14.833 2 -19.5 2c-31.333 0 -63 -30.667 -95 -92c-130 -252 -214.667 -565.667 -254 -941l61 115c7.33301 14.667 16.333 22 27 22
c12.667 0 19 -8.33301 19 -25c0 -8 -2.33301 -17.333 -7 -28c-29.333 -69.333 -56.333 -169 -81 -299c-6 -28.667 -19 -43 -39 -43c-22.667 0 -57 17.333 -103 52c-22 16.667 -34.667 30 -38 40c-4 9.33301 -3.66699 28.666 1 57.999c24 144.667 55 307.667 93 489
c44 207.333 76 329.666 96 366.999c-70 -82.667 -156 -204 -258 -364c-100 -157.333 -187.333 -307 -262 -449c13.333 -41.333 20 -72.333 20 -93c0 -26 -22 -59.333 -66 -100c-22.667 -21.333 -37.667 -32 -45 -32s-27 26.667 -59 80c-14 22.667 -21 40.667 -21 54
c0 9.33301 9.66699 32 29 68c-42.667 158.667 -120.334 352 -233.001 580c-72 -181.333 -145 -346.666 -219 -495.999c48 -54 72 -90.333 72 -109c0 -14.667 -16.667 -24 -50 -28c-70 -8 -128.667 -44 -176 -108c-4 -20.667 -14 -31 -30 -31
c-22.667 0 -57.667 20.333 -105 61c-14.667 12.667 -22 23 -22 31c0 7.33301 6 16.333 18 27c44.667 38.667 95.667 76 153 112c124 206 225 422.667 303 650c-81.333 178.667 -182.333 303.334 -303 374.001c-20 12 -39 18 -57 18c-25.333 0 -52 -13 -80 -39l-78 -85
c-14.667 -16.667 -29.667 -25 -45 -25c-12 0 -18 6 -18 18c0 6 2 13 6 21c90 180.667 176 269.334 258 266.001c97.333 -3.33301 223.666 -124 378.999 -362c38 86.667 57 165 57 235c0 36 5.33301 54 16 54c10 0 33.333 -14.333 70 -43
c10.667 -8.66699 15.667 -26.667 15 -54c-1.33301 -34.667 -32.333 -135.667 -93 -303c117.333 -228 206.333 -436 267 -624c235.333 390.667 447 695.667 635 915c23.333 53.333 52 106 86 158c14.667 22.667 32.334 34 53.001 34c31.333 0 86.666 -32 165.999 -96z" />
    <glyph glyph-name="N" unicode="N" horiz-adv-x="1432" 
d="M1589 1296c9.33301 -10.667 13.998 -22.334 13.998 -35.001c0 -23.333 -17.667 -55.666 -53 -96.999l-80 -85c-54 -152.667 -103.667 -317 -149 -493c-54 -208 -82 -360.333 -84 -457c11.333 -30.667 17 -51.334 17 -62.001c0 -26.667 -24.667 -56.667 -74 -90
c-9.33301 -6 -18.333 -9 -27 -9c-11.333 0 -22 6 -32 18c-6.66699 7.33301 -13 14.666 -19 21.999c-10 6.66699 -10 35.334 0 86.001c-58.667 154.667 -141 331.334 -247 530.001c-91.333 170.667 -156.666 280.667 -195.999 330c-27.333 -88 -77 -223.667 -149 -407
l-115 -293c18 6.66699 46 -27.333 84 -102c4 -7.33301 6 -13.333 6 -18c0 -11.333 -9.66699 -17.333 -29 -18c12.667 0.666992 -3.33301 1 -48 1c-41.333 0 -76.333 -14.333 -105 -43l-25 -57c-12 -28 -29 -42 -51 -42c-8.66699 0 -18.667 2.33301 -30 7
c-68 27.333 -101.667 54.333 -101 81c1.33301 34.667 54 83.334 158 146.001c54.667 98 124.334 255.667 209.001 473c68 173.333 112.333 295 133 365c-46.667 74.667 -94.334 125.667 -143.001 153c-18.667 10 -35 15 -49 15c-28.667 0 -67 -18 -115 -54
c-12.667 -9.33301 -25 -14 -37 -14c-15.333 0 -23 7 -23 21c0 12 7 24.667 21 38c73.333 70.667 118.666 112.667 135.999 126c37.333 30 69 43.333 95 40c40.667 -4.66699 94 -53 160 -145c14 34.667 18 61.334 12 80.001c-0.666992 3.33301 -1 6.33301 -1 9
c0 8.66699 3.66699 13 11 13c12.667 0 32 -11 58 -33c13.333 -11.333 20 -27 20 -47c0 -16.667 -4.33301 -38 -13 -64c-7.33301 -19.333 -14.333 -39 -21 -59c90.667 -126.667 184.334 -278 281.001 -454c88.667 -162.667 148.334 -287.667 179.001 -375
c23.333 151.333 80 401.333 170 750c-16.667 10.667 -37.667 27 -63 49c-11.333 12 -17 22 -17 30c0 11.333 11.5 16.166 34.5 14.499s79.833 55.166 170.5 170.499c20.667 25.333 38 38 52 38c19.333 0 44.333 -17.667 75 -53z" />
    <glyph glyph-name="O" unicode="O" horiz-adv-x="1194" 
d="M1280 1143c-24 -208 -92.999 -434.334 -206.999 -679.001c-148.667 -321.333 -313 -485.666 -493 -492.999c-34.667 -1.33301 -67.667 1.33398 -99 8.00098c-36 6.66699 -51.667 15.667 -47 27c-109.333 26.667 -185 57.667 -227 93c-58 48.667 -85.333 123.667 -82 225
c6.66699 193.333 64.334 400.333 173.001 621c87.333 177.333 171.666 303.333 252.999 378c34 31.333 65.333 47 94 47s57.667 -8 87 -24c12 -6.66699 50 -31.334 114 -74.001c52 56.667 96.333 97.667 133 123c22 14.667 44.667 22 68 22
c39.333 0 74.666 -19.667 105.999 -59c55.333 -3.33301 91 -10.666 107 -21.999c19.333 -12.667 29 -39.334 29 -80.001c0 -23.333 -3 -61 -9 -113zM1147 1227c3.33301 50 -8.33203 74.998 -34.999 74.998c-21.333 0 -53.333 -15 -96 -45c-96 -66 -212 -163.333 -348 -292
c-15.333 -14.667 -29 -22.334 -41 -23.001c-11.333 -1.33301 -17 3.66699 -17 15c0 10.667 5 23.334 15 38.001c58 90.667 117.333 169.334 178 236.001c-34.667 26 -65.667 39 -93 39c-16.667 0 -31.334 -5 -44.001 -15c-74 -54 -157.667 -173.667 -251 -359
c-111.333 -219.333 -163 -411.666 -155 -576.999c3.33301 -67.333 16.333 -118.333 39 -153c20 -30 55.667 -58 107 -84c40.667 -20.667 80.667 -29 120 -25c136 14.667 270.667 153.667 404 417c126.667 250.667 199 501.667 217 753z" />
    <glyph glyph-name="P" unicode="P" horiz-adv-x="1159" 
d="M1274 1024c-17.333 -72 -62.4971 -163.669 -135.497 -275.002s-136.5 -186.333 -190.5 -225c-38 -27.333 -75.333 -41 -112 -41c-21.333 0 -72.666 16.333 -153.999 49c-16 6.66699 -24 14.334 -24 23.001c0 13.333 18.333 20 55 20c60.667 0 107 12.333 139 37
c64 48.667 124.667 115.334 182 200.001c73.333 107.333 117 212.666 131 315.999c8 56.667 -11.333 90.667 -58 102c-21.333 4.66699 -43 5 -65 1c-103.333 -5.33301 -203 -28 -299 -68c-111.333 -402 -213.666 -723.333 -306.999 -964c5.33301 2 25 13.333 59 34
c19.333 11.333 34.666 16.333 45.999 15c19.333 -3.33301 38.333 -22.666 57 -57.999c15.333 -28.667 23 -50 23 -64c0 -18 -11.667 -26 -35 -24c-16.667 2 -44.334 -7.33301 -83.001 -28c-42 -22 -78 -48 -108 -78c-14.667 -14.667 -30 -22 -46 -22
c-22 0 -49 14.667 -81 44c-20 19.333 -28.667 36 -26 50c2 11.333 12.667 19.333 32 24c162.667 374.667 283.667 717.334 363 1028c-250.667 -112.667 -376 -217.667 -376 -315c0 -14 2.33301 -27.667 7 -41c1.33301 -5.33301 7.66602 -22.333 18.999 -51
c2.66699 -6.66699 4 -13 4 -19c0 -18.667 -7.33301 -28 -22 -28c-20.667 0 -60.334 58 -119.001 174c-8.66699 16 -13 32 -13 48c0 39.333 24.667 82 74 128c34 31.333 98 74 192 128c101.333 57.333 191.666 100.666 270.999 129.999c8 32.667 12 59.334 12 80.001
c0 26.667 6.66699 40 20 40c18 0 49.667 -24.333 95 -73c110 32 184.333 47.667 223 47c74 -1.33301 126.667 -40.333 158 -117c40 -29.333 66.667 -52.333 80 -69c16.667 -20.667 25 -45.334 25 -74.001c0 -20.667 -4.33301 -48.667 -13 -84z" />
    <glyph glyph-name="Q" unicode="Q" horiz-adv-x="1239" 
d="M1280 1143c-15.333 -128 -55.333 -282.998 -120 -464.998c-82.667 -230.667 -177 -408.334 -283 -533.001c36 -8 70.333 -12 103 -12c84 0 154 26.667 210 80c6.66699 6.66699 13.334 10 20.001 10c12 0 18 -7.33301 18 -22c0 -4.66699 -1 -9.66699 -3 -15
c-17.333 -40 -42.666 -83.667 -75.999 -131c-31.333 -44 -67 -66 -107 -66c-14.667 0 -35.667 1.66699 -63 5c-10 0 -82.333 15 -217 45c-56.667 -43.333 -117.334 -66 -182.001 -68c-34.667 -0.666992 -67.667 2 -99 8c-36 6.66699 -51.667 15.667 -47 27
c-109.333 26.667 -185 57.667 -227 93c-58 48.667 -85.333 123.667 -82 225c6.66699 193.333 64.334 400.333 173.001 621c87.333 177.333 171.666 303.333 252.999 378c34 31.333 65.333 47 94 47s57.667 -8 87 -24c12 -6.66699 50 -31.334 114 -74.001
c52 56.667 96.333 97.667 133 123c22 14.667 44.667 22 68 22c39.333 0 74.666 -19.667 105.999 -59c55.333 -3.33301 91 -10.666 107 -21.999c19.333 -12.667 29 -39.334 29 -80.001c0 -23.333 -3 -61 -9 -113zM1147 1227c3.33301 50 -8.33301 74.998 -35 74.998
c-21.333 0 -53.333 -15 -96 -45c-96 -66 -212 -163.333 -348 -292c-15.333 -14.667 -29 -22.334 -41 -23.001c-11.333 -1.33301 -17 3.66699 -17 15c0 10.667 5 23.334 15 38.001c58 90.667 117.333 169.334 178 236.001c-34.667 26 -65.667 39 -93 39
c-16.667 0 -31.334 -5 -44.001 -15c-74 -54 -157.667 -173.667 -251 -359c-111.333 -219.333 -163 -411.666 -155 -576.999c3.33301 -67.333 16.333 -118.333 39 -153c20 -30 55.667 -58 107 -84c39.333 -20 79.333 -28.333 120 -25c29.333 2.66699 59.333 12.334 90 29.001
c-26 9.33301 -73.667 29.666 -143 60.999c-18.667 8.66699 -28 34 -28 76c0 27.333 3.33301 53.333 10 78c1.33301 12 7.33301 19.333 18 22c8.66699 2 16.334 0 23.001 -6c56.667 -54 135.667 -99.667 237 -137c103.333 109.333 194.833 265.333 274.5 468
s126.167 395.667 139.5 579z" />
    <glyph glyph-name="R" unicode="R" horiz-adv-x="1446" 
d="M1651 -102c-58.667 -103.333 -111.995 -156.667 -159.995 -160c-29.333 -2 -64.333 14.333 -105 49c-242.667 210 -485 483.667 -727 821c-22.667 -79.333 -61.667 -189.333 -117 -330c-50.667 -128 -89.334 -218.667 -116.001 -272
c-14.667 -29.333 -29.334 -44 -44.001 -44c-8 0 -18 4.33301 -30 13c-43.333 32.667 -65 59.667 -65 81c0 12.667 4 28.667 12 48c17.333 38.667 35.666 90.667 54.999 156l2 49c1.33301 11.333 7 18.333 17 21c8.66699 2 27.667 -19.333 57 -64
c50.667 107.333 107.334 248.666 170.001 423.999c-36 55.333 -54 89.333 -54 102c0 15.333 31.667 25.666 95 30.999c28 81.333 58.667 185.333 92 312c-109.333 -41.333 -190.666 -76.666 -243.999 -105.999c-82 -44.667 -146.667 -97.667 -194 -159
c-20 -25.333 -30 -54.666 -30 -87.999c0 -26 12.667 -77 38 -153c7.33301 -22 1 -33 -19 -33c-12.667 0 -23.334 6.66699 -32.001 20c-38.667 58 -69.334 117 -92.001 177c-16 41.333 -24 68 -24 80c0 34 23.667 72.667 71 116c134.667 124 317.667 221 549 291
c3.33301 6 8.33301 29.667 15 71c5.33301 32 13.333 47.333 24 46c12.667 -2 33 -29.333 61 -82c152.667 36.667 248.334 53.667 287.001 51c60 -4 106.333 -46.333 139 -127c40.667 -28.667 67.334 -52.667 80.001 -72c18 -25.333 27 -59.333 27 -102
c0 -74 -45.333 -167.333 -136 -280c-92.667 -115.333 -172.334 -173 -239.001 -173c-36.667 0 -70.667 8.66699 -102 26l-72 48c-9.33301 6 -14 13 -14 21c0 17.333 11 26 33 26c5.33301 0 16.666 -2.83301 33.999 -8.5s32.666 -8.5 45.999 -8.5
c66 0 140.667 53.667 224 161c75.333 96 113 175.667 113 239c0 76.667 -53.333 115 -160 115c-89.333 0 -187.666 -21.333 -294.999 -64c-30.667 -133.333 -68 -264.333 -112 -393c131.333 -196.667 280.666 -387 447.999 -571c179.333 -196 301.666 -296.333 366.999 -301
c27.333 -2 55.333 8 84 30c12 10 23 15 33 15c13.333 0 20 -6.33301 20 -19c0 -8.66699 -3.33301 -18.667 -10 -30z" />
    <glyph glyph-name="S" unicode="S" horiz-adv-x="1120" 
d="M1294 1221c-26 -91.333 -61.335 -170.666 -106.002 -237.999c-20 -30 -39 -45 -57 -45c-17.333 0 -47.666 14.333 -90.999 43c-13.333 8.66699 -20 17.667 -20 27c0 14 11.667 24 35 30c17.333 5.33301 37 35.666 59 90.999c20.667 52.667 31 94 31 124
c0 31.333 -12.333 47 -37 47c-8.66699 0 -19.667 -1.33301 -33 -4c-26 -4 -82 -21.667 -168 -53c-10 -3.33301 -19 -5 -27 -5c-20 0 -30 6.66699 -30 20c0 12.667 10.333 24 31 34c74.667 37.333 148.334 68.666 221.001 93.999c23.333 8.66699 40 13 50 13
c15.333 0 35.333 -21.333 60 -64c37.333 -11.333 60.333 -19.666 69 -24.999c14.667 -8.66699 22 -22 22 -40c0 -12.667 -3 -29 -9 -49zM994.998 303c0 -120.667 -61.332 -217.667 -183.999 -291c-35.333 -55.333 -81 -82.666 -137 -81.999
c-99.333 1.33301 -210 45.666 -332 132.999c-104.667 74.667 -177 146.667 -217 216c-38 64.667 -57 105.334 -57 122.001c0 20.667 15 44 45 70c28 24.667 50 37 66 37c15.333 0 23 -10 23 -30c0 -8.66699 -1.66699 -19.334 -5 -32.001c35.333 -96 110 -185.333 224 -268
s217.333 -123.667 310 -123c82 0.666992 123 56.667 123 168c0 61.333 -47.833 183.833 -143.5 367.5s-143.5 315.167 -143.5 394.5c0 52 14.667 98.333 44 139c24.667 34 68 74.333 130 121c11.333 8.66699 22.666 13 33.999 13c18 0 27 -7.66699 27 -23
c0 -10.667 -6 -21.667 -18 -33c-51.333 -48.667 -77 -108 -77 -178c0 -78 48 -206.667 144 -386s144 -291 144 -335z" />
    <glyph glyph-name="T" unicode="T" horiz-adv-x="1163" 
d="M1446 1276c1.33301 -6 2.00195 -11.3291 2.00195 -15.9961c0 -19.333 -12 -32.333 -36 -39c-1.33301 -0.666992 -24.333 -4.33398 -69 -11.001c-118 -16.667 -239.333 -30.334 -364 -41.001c-52.667 -112.667 -117.334 -295.334 -194.001 -548.001
c-70.667 -230.667 -122.667 -423.334 -156 -578.001c-11.333 -50 -28 -75 -50 -75c-14 0 -42.333 7.33301 -85 22c-15.333 4.66699 -23.666 13.667 -24.999 27c1.33301 -13.333 2 7 2 61c0 98 15.667 187.333 47 268c12 30 25.333 45 40 45c4 0 11.833 -1.5 23.5 -4.5
s21.167 -4.83301 28.5 -5.5c18 68 60.667 202.333 128 403c76 226.667 117.333 351 124 373c-102.667 -8 -205.334 -24 -308.001 -48c-114 -28 -188.667 -57.667 -224 -89c-40 -36 -60 -71.667 -60 -107c0 -38 22 -97.333 66 -178c4.66699 -8.66699 7 -16.667 7 -24
c0 -16.667 -7.66699 -25 -23 -25c-10.667 0 -20.334 6.33301 -29.001 19c-52.667 75.333 -87 134 -103 176c-11.333 29.333 -19.333 71.666 -24 126.999c-7.33301 81.333 59.667 141.333 201 180c184 50 369.667 83.333 557 100c21.333 43.333 37 65 47 65
c15.333 0 41.333 -16.667 78 -50c17.333 0 71 6.66699 161 20c16 2.66699 32.333 14.334 49 35.001c14.667 19.333 49.667 30.333 105 33c30 1.33301 50.667 -10 62 -34c2 -3.33301 9.33301 -30.333 22 -81z" />
    <glyph glyph-name="U" unicode="U" horiz-adv-x="1534" 
d="M1767 1264c5.33301 -4.66699 7.99805 -9.33496 7.99805 -14.002c0 -14 -10.333 -21 -31 -21c-5.33301 0 -13.166 1 -23.499 3s-18.166 3 -23.499 3c-30 0 -60.333 -29.333 -91 -88c-140.667 -266.667 -235.667 -577.334 -285 -932.001c10 28.667 21 51.667 33 69l32 46
c8.66699 13.333 18 20 28 20c11.333 0 17 -7.66699 17 -23c0 -8.66699 -2.66699 -18.667 -8 -30c-43.333 -95.333 -73.333 -190.333 -90 -285c-6 -36.667 -20 -55 -42 -55c-23.333 0 -57 18.333 -101 55c-28 23.333 -42 39 -42 47c0 2.66699 1.5 8.66699 4.5 18
s5.16699 19 6.5 29c19.333 144.667 59 328.334 119 551.001c-145.333 -265.333 -281.333 -470 -408 -614c-38.667 -44 -79.334 -66 -122.001 -66c-43.333 0 -79.666 20 -108.999 60c-69.333 54.667 -110.333 90.667 -123 108c-25.333 34.667 -38 86.334 -38 155.001
c0 15.333 0.333008 32 1 50c5.33301 98.667 33.666 229 84.999 391c50.667 159.333 109 304.333 175 435c-184.667 -60.667 -315 -118 -391 -172c-36 -26 -54 -52.667 -54 -80c0 0.666992 9.33301 -35 28 -107c0.666992 -3.33301 1 -6.66602 1 -9.99902
c0 -12 -5.66699 -18 -17 -18c-19.333 0 -36 12 -50 36c-56.667 96.667 -85 165.334 -85 206.001c0 55.333 38 94.666 114 117.999c130 34.667 293.667 82.334 491 143.001c32 50 61 75 87 75c29.333 0 71.333 -26.333 126 -79c8 -7.33301 12 -14 12 -20
c0 -14 -31.333 -27.667 -94 -41c-80.667 -132 -150.667 -301.333 -210 -508c-52 -180.667 -80.333 -328.334 -85 -443.001c-2 -58.667 10 -105.334 36 -140.001c23.333 -32 53 -48 89 -48c34.667 0 65.334 15.667 92.001 47c118 138.667 231.667 301.334 341 488.001
c76 130.667 172.667 315.667 290 555c27.333 55.333 57.333 107 90 155c14.667 21.333 32 32 52 32c32 0 87 -33.667 165 -101z" />
    <glyph glyph-name="V" unicode="V" horiz-adv-x="1356" 
d="M1608 1276c8.66699 -12.667 13.001 -23.667 13.001 -33c0 -13.333 -29 -39.333 -87 -78c-82 -97.333 -193 -262 -333 -494c-150 -249.333 -254 -447 -312 -593c3.33301 -14.667 5 -26 5 -34c0 -22 -21 -42.667 -63 -62c-16.667 -8 -31.334 -12 -44.001 -12
c-16.667 0 -38.667 15.333 -66 46c-10.667 12.667 -16 25.667 -16 39c0 19.333 9.33301 37.333 28 54c-4 222.667 -33.667 444.334 -89 665.001c-49.333 195.333 -103 334.666 -161 417.999c-20 29.333 -46.667 44 -80 44c-36 0 -87.667 -25 -155 -75
c-7.33301 -5.33301 -16 -8 -26 -8c-19.333 0 -29 7 -29 21c0 8 5.33301 17.333 16 28c56.667 57.333 127.667 110 213 158c30 17.333 54.333 26 73 26c30 0 60.333 -22.333 91 -67c136.667 -200.667 231.334 -557.667 284.001 -1071c46.667 94 135 256 265 486
c119.333 212 187.333 329.667 204 353c-12.667 -2 -26 10.667 -40 38s-21 54.333 -21 81c0 21.333 6.33301 32 19 32c15.333 -0.666992 30.666 -1 45.999 -1c18 4.66699 41.333 19.667 70 45l57 51c19.333 13.333 34 20 44 20c26.667 0 58 -25.667 94 -77z" />
    <glyph glyph-name="W" unicode="W" horiz-adv-x="2011" 
d="M2120 944c7.33301 -8.66699 10.9971 -17.9951 10.9971 -27.9951c0 -20 -8.33301 -30 -25 -30c-4.66699 0 -9 1.66699 -13 5c-14 12 -31.667 25 -53 39c-115.333 -424.667 -254.666 -730 -417.999 -916c-17.333 -19.333 -40.666 -29 -69.999 -29
c-28 0 -57.333 7.66699 -88 23c-93.333 27.333 -158 55.666 -194 84.999c-52.667 42 -81.334 106 -86.001 192c-2 24.667 -3 51.334 -3 80.001c0 186 26.333 379 79 579c-73.333 -78.667 -154.666 -181 -243.999 -307c-104.667 -147.333 -177 -268.333 -217 -363
c-42.667 -99.333 -72.334 -161.333 -89.001 -186c-13.333 -19.333 -36.333 -37 -69 -53c-53.333 -26.667 -90 -40 -110 -40c-14 0 -21 6 -21 18c0 9.33301 4 22.666 12 39.999c68.667 145.333 137.667 344.5 207 597.5s104 434.167 104 543.5
c0 17.333 -1.33301 31.666 -4 42.999c-69.333 -16.667 -152.333 -47.334 -249 -92.001c-92.667 -42.667 -170.667 -85 -234 -127c-34 -23.333 -51 -54.333 -51 -93c0 -24.667 6.66699 -52.334 20 -83.001c3.33301 -6.66699 5 -12.334 5 -17.001
c0 -11.333 -5.66699 -17 -17 -17c-12 0 -23.667 7 -35 21c-81.333 100.667 -120.666 165.667 -117.999 195c2 34.667 44 73.667 126 117c59.333 31.333 146 65.666 260 102.999c117.333 38 192 65 224 81l10 30c6 15.333 16.667 23 32 23c24 0 61.667 -19 113 -57
c42 -30.667 63 -69.334 63 -116.001c0 -11.333 -1.66699 -34 -5 -68c-5.33301 -50.667 -28 -153 -68 -307c-38 -144.667 -71.333 -259.667 -100 -345c58 84.667 152 212 282 382c125.333 164.667 198.666 257.334 219.999 278.001c21.333 78.667 35.333 125.667 42 141
c15.333 34.667 36 52 62 52c8.66699 0 18.334 -1.66699 29.001 -5c73.333 -22.667 110 -44.667 110 -66c0 -12 -8 -26.667 -24 -44l-69 -73v0l-1 -1c-91.333 -298 -137 -547 -137 -747c0 -28 0.666992 -55.667 2 -83c4 -69.333 20.667 -126.333 50 -171s64 -66.667 104 -66
c46.667 0.666992 89 27.334 127 80.001c66 91.333 134.333 218.333 205 381c80.667 184.667 132.334 347 155.001 487c-31.333 36 -47 86.333 -47 151c0 54 11 121 33 201c11.333 43.333 29 65 53 65c22 0 48.667 -18.667 80 -56c23.333 -28.667 35 -61.667 35 -99
c0 -23.333 -19.333 -117.333 -58 -282c9.33301 -9.33301 30 -31.333 62 -66z" />
    <glyph glyph-name="X" unicode="X" horiz-adv-x="1315" 
d="M1372 1315c20 -23.333 30.0029 -45.998 30.0029 -67.998c0 -32 -27.833 -79.167 -83.5 -141.5s-208.5 -189.833 -458.5 -382.5c53.333 -257.333 108 -430 164 -518c40.667 -64 75.667 -96 105 -96c12 0 41.333 11.333 88 34c9.33301 4.66699 18.333 7 27 7
c16.667 0 25 -6 25 -18c0 -8 -5.33301 -16.667 -16 -26c-111.333 -94 -194.333 -141 -249 -141c-82 0 -168.333 223.333 -259 670c-236 -186.667 -392.5 -329.5 -469.5 -428.5s-115.5 -174.5 -115.5 -226.5c0 -10 3 -23.667 9 -41c4.66699 -12.667 5 -20.334 1 -23.001
c-12 -8.66699 -26.5 -2.5 -43.5 18.5l-51.5 62.5c-17.333 24 -26 47.667 -26 71c0 30.667 14.333 64.667 43 102c91.333 118 303.666 303.667 636.999 557c-30 158.667 -51.667 308.334 -65 449.001l-176 -95c-80 -46 -133.333 -87 -160 -123c-16 -20 -24 -43 -24 -69
c0 -24.667 10.667 -60.334 32 -107.001c2 -4.66699 3 -9.33398 3 -14.001c0 -16 -7 -24 -21 -24c-8.66699 0 -17 5.33301 -25 16c-72 95.333 -108 166.666 -108 213.999c0 40.667 23.667 78.334 71 113.001c42.667 32 106.334 64 191.001 96
c95.333 36 162.666 65.667 201.999 89c5.33301 42.667 38.333 81.667 99 117c19.333 10.667 34.666 16 45.999 16c14.667 0 28.667 -15.667 42 -47c4 -10 6 -19 6 -27c0 -17.333 -15 -37 -45 -59c-2 -14.667 -3 -32.667 -3 -54c0 -96 16 -231 48 -405
c174 134.667 286 229 336 283c-58 19.333 -87 40.333 -87 63c0 6 3.66699 11.667 11 17c6 -2 19.667 1.33301 41 10c58 42.667 103 91.667 135 147c13.333 22.667 23.666 34 30.999 34c12 0 33 -17.333 63 -52z" />
    <glyph glyph-name="Y" unicode="Y" horiz-adv-x="1366" 
d="M1516 1264c8.66699 -10.667 13.001 -22.334 13.001 -35.001c0 -32.667 -40.667 -107 -122 -223c-18.667 -47.333 -71.334 -213.666 -158.001 -498.999c-85.333 -280 -150.666 -475.667 -195.999 -587c-29.333 -71.333 -53.333 -119.666 -72 -144.999
c-23.333 -32.667 -50.333 -49 -81 -49c-45.333 0 -132.333 45.667 -261 137c-14.667 10.667 -22 21 -22 31c0 15.333 11 23 33 23c8 0 16 -1.66699 24 -5c70.667 -28 115 -42 133 -42c37.333 0 70 25.667 98 77c122.667 222 231.334 501.667 326.001 839
c-126.667 -222.667 -264.667 -410.334 -414 -563.001c-40 -40.667 -73 -61 -99 -61c-21.333 0 -46.333 15 -75 45c-76.667 46.667 -121.334 78 -134.001 94c-22 28 -32 80 -30 156c4 144.667 71.667 378.667 203 702c-160 -59.333 -277.333 -118 -352 -176
c-35.333 -27.333 -53 -54 -53 -80c0 -2 10.667 -38 32 -108c1.33301 -4 2 -7.66699 2 -11c0 -10.667 -5.66699 -16 -17 -16c-18.667 0 -35.334 11.667 -50.001 35c-62 96.667 -93 165.334 -93 206.001c0 52 36.333 90.333 109 115c129.333 40 292 94 488 162
c29.333 52 57.666 78 84.999 78c28.667 0 70.334 -24.667 125.001 -74c9.33301 -8 14 -15.333 14 -22c0 -14.667 -29.667 -29 -89 -43c-80 -111.333 -147.667 -257 -203 -437c-48 -156.667 -72 -283.334 -72 -380.001c0 -95.333 25.667 -143 77 -143
c24.667 0 49.667 12.667 75 38c236.667 238 442.667 540.333 618 907c17.333 68 39.333 102 66 102c19.333 0 43.333 -16 72 -48z" />
    <glyph glyph-name="Z" unicode="Z" horiz-adv-x="1120" 
d="M1290 1171c0 -28.667 -23.0029 -61.335 -69.0029 -98.002c-21.333 -16.667 -42 -25 -62 -25c-10 0 -37.333 5 -82 15c-95.333 -50.667 -240 -207 -434 -469c144.667 -3.33301 252.667 -8 324 -14c27.333 -2.66699 41 -13.667 41 -33c0 -15.333 -16.667 -24.333 -50 -27
c-130.667 -10 -263 -23 -397 -39c-94.667 -139.333 -165.667 -254.666 -213 -345.999c116.667 0 288.667 -19.667 516 -59c16 -2.66699 29 -4 39 -4c16.667 0 29.667 8 39 24c10.667 26 23.667 39 39 39s25.333 -5.33301 30 -16l29 -105c2.66699 -9.33301 4 -18 4 -26
c0 -18.667 -8.33301 -35.167 -25 -49.5s-33.334 -27.833 -50.001 -40.5c-10 -8.66699 -32.667 -6.66699 -68 6c-213.333 76 -420.666 114 -621.999 114c-18.667 -23.333 -34 -37.666 -46 -42.999s-34.333 -8 -67 -8c-29.333 0 -53.5 12.667 -72.5 38
s-28.5 40.666 -28.5 45.999c0 8.66699 6.33301 21.667 19 39c18 24.667 39.333 39.334 64 44.001c9.33301 2 36.333 2.33301 81 1c30 51.333 73 119 129 203c0.666992 37.333 -2.33301 77 -9 119s-10 65.667 -10 71c0 14 3.66699 24.333 11 31
c16.667 15.333 77.334 25.666 182.001 30.999c178.667 250 323.667 421.333 435 514c-1.33301 0 -72.666 24 -213.999 72c-92.667 31.333 -164 47 -214 47c-68 0 -118 -28.667 -150 -86c-42 -75.333 -83.667 -178 -125 -308c-7.33301 -24 -21.333 -36 -42 -36
c-16.667 0 -25 10.667 -25 32c0 4.66699 0.666992 10.334 2 17.001c44.667 194 94.334 345.333 149.001 454c30 58.667 83.333 88 160 88c48.667 0 142.667 -26.667 282 -80c148 -56.667 246.333 -88 295 -94c38 29.333 71.667 44 101 44c15.333 0 33 -3 53 -9
c36 -10.667 54 -25.334 54 -44.001c0 -3.33301 -0.5 -8.16602 -1.5 -14.499s-1.5 -11.5 -1.5 -15.5z" />
    <glyph glyph-name="bracketleft" unicode="[" horiz-adv-x="819" 
d="M930 1456c16 0 24.001 -8.66797 24.001 -26.001c0 -20.667 -10 -31 -30 -31c-64.667 -1.33301 -110.667 -12.666 -138 -33.999c-22.667 -17.333 -45 -54 -67 -110c-15.333 -38.667 -82.666 -238.334 -201.999 -599.001
c-114.667 -348.667 -178.334 -544.667 -191.001 -588c-10.667 -36.667 -16 -66 -16 -88c0 -57.333 42 -86 126 -86c20 0 30 -10.333 30 -31c0 -18 -8.66699 -27 -26 -27c-110.667 2 -188.334 1.33301 -233.001 -2c-10.667 -4 -20.667 -6 -30 -6c-28 0 -42 16 -42 48
c0 8.66699 1.33301 18 4 28c10 33.333 89.333 277.333 238 732l233 710c28.667 82 60 123 94 123c6.66699 0 13.667 -1.66699 21 -5c13.333 -5.33301 32 -8.66602 56 -9.99902c16.667 -0.666992 41 -0.666992 73 0c40.667 1.33301 66 2 76 2z" />
    <glyph glyph-name="backslash" unicode="\" horiz-adv-x="819" 
d="M557 1341l-85.999 -1091c-3.33301 -45.333 -3.33301 -94 0 -146c4 -75.333 15.667 -119.666 35 -132.999c12 -8 18 -18 18 -30c0 -27.333 -21.667 -39 -65 -35l-74 6c-44 3.33301 -63.667 31.333 -59 84l90 1106c11.333 138.667 -1.66699 220 -39 244
c-15.333 9.33301 -23 19.333 -23 30c0 13.333 10.333 21.666 31 24.999l111 18c37.333 0 57.666 -26 60.999 -78z" />
    <glyph glyph-name="bracketright" unicode="]" horiz-adv-x="819" 
d="M817 1401c-11.333 -37.333 -91 -281.833 -239 -733.5s-226 -688.5 -234 -710.5c-30.667 -82 -61.334 -123 -92.001 -123c-6.66699 0 -13.667 1.33301 -21 4c-12.667 5.33301 -31 8.66602 -55 9.99902c-17.333 1.33301 -41.666 1.33301 -72.999 0
c-40.667 -1.33301 -66 -2 -76 -2c-17.333 0 -26 9.66699 -26 29c0 20 10 30.333 30 31c64.667 1.33301 110.667 12.333 138 33c23.333 17.333 46.333 54 69 110c14.667 38 81.667 237.333 201 598c114.667 349.333 178.667 546 192 590c10 35.333 15 64 15 86
c0 57.333 -42.667 86 -128 86c-19.333 0 -29 10 -29 30c0 18.667 8.33301 27.667 25 27c91.333 -3.33301 170 -2.66602 236 2.00098c10 4.66699 19.333 7 28 7c28.667 0 43 -16.333 43 -49c0 -8 -1.33301 -16.333 -4 -25z" />
    <glyph glyph-name="asciicircum" unicode="^" horiz-adv-x="922" 
d="M836 618c26.667 -8 40.0029 -16.333 40.0029 -25c0 -10 -17.667 -22 -53 -36c-41.333 -16.667 -67.333 -25 -78 -25c-18.667 0 -37.667 15.333 -57 46c-30.667 47.333 -69 122.333 -115 225c-2.66699 8.66699 -19.667 3 -51 -17l-301 -219
c-33.333 -20 -54.333 -30 -63 -30c-9.33301 0 -17 10 -23 30c-4 16 -6 28.333 -6 37c0 17.333 16.333 29 49 35c19.333 2 74.666 33.667 165.999 95c78 52.667 137.333 95.334 178 128.001c16.667 13.333 30 32 40 56c8 18 23.167 30.833 45.5 38.5
s36.166 11.167 41.499 10.5c8 0 13 -6.33301 15 -19c15.333 -62 40.666 -127.333 75.999 -196c36.667 -70.667 68.667 -115.334 96 -134.001z" />
    <glyph glyph-name="underscore" unicode="_" horiz-adv-x="1024" 
d="M1024 -369h-1024v97h1024v-97z" />
    <glyph glyph-name="grave" unicode="`" 
d="M580 1008c2 -4.66699 3.00098 -9.33301 3.00098 -14c0 -14.667 -7 -22 -21 -22c-9.33301 0 -18.333 5.66699 -27 17c-47.333 59.333 -97 109.333 -149 150c-28 21.333 -51 32 -69 32c-27.333 0 -41 9 -41 27c0 4 3 7.33301 9 10l57 27c12 5.33301 22.667 8 32 8
c18 0 37.333 -11 58 -33c69.333 -72.667 118.666 -140 147.999 -202z" />
    <glyph glyph-name="a" unicode="a" horiz-adv-x="797" 
d="M739 666c-61.333 -170 -103.666 -312.663 -126.999 -427.996c10 9.33301 23.167 23.666 39.5 42.999s26.5 30.666 30.5 33.999c9.33301 12 19.333 18 30 18c10 0 15 -5 15 -15c0 -6 -2.66699 -13 -8 -21c-62.667 -92.667 -104.334 -186.334 -125.001 -281.001
c-6 -26.667 -15 -40 -27 -40c-11.333 0 -32.333 10.667 -63 32c-18 12 -28.333 22 -31 30c-3.33301 7.33301 -3.33301 22 0 44c28 169.333 63 310 105 422c-58 -94 -137 -198 -237 -312c-87.333 -99.333 -150.333 -162.666 -189 -189.999c-28 -19.333 -49.333 -29 -64 -29
c-12 0 -30.333 9.66699 -55 29c-35.333 21.333 -53 50.666 -53 87.999c0 7.33301 0.666992 15.666 2 24.999c12 98.667 55.333 213.5 130 344.5s160.334 241.5 257.001 331.5c31.333 29.333 59.333 43.666 84 42.999c24 -1.33301 69.667 -33 137 -95c6 -5.33301 9 -11 9 -17
c0 -10.667 -7 -16 -21 -16c-5.33301 0 -10.333 1 -15 3c-47.333 20 -85.333 19.333 -114 -2c-62.667 -46 -132 -127 -208 -243c-88 -133.333 -141 -253.333 -159 -360c-0.666992 -4.66699 -1 -9 -1 -13c0 -16.667 6.66699 -25 20 -25c22.667 0 49.667 15.667 81 47
c74.667 72.667 154.667 164 240 274c87.333 114 143.333 200 168 258c18 42.667 29.667 72.667 35 90c8.66699 30 18 45 28 45s33.333 -13.667 70 -41c15.333 -11.333 23.666 -21.666 24.999 -30.999c1.33301 -8 -1.66699 -22 -9 -42z" />
    <glyph glyph-name="b" unicode="b" horiz-adv-x="858" 
d="M842 1552c8 -6 11.998 -12.668 11.998 -20.001c0 -13.333 -8 -20 -24 -20c-6 0 -12.333 2 -19 6c-30.667 16 -53.667 24 -69 24c-41.333 0 -87.333 -41 -138 -123c-180 -291.333 -310.333 -673.666 -391 -1147c69.333 117.333 121 200.333 155 249
c69.333 100 141.333 183.667 216 251c36 32.667 68.333 49 97 49c14.667 0 37.667 -9.33301 69 -28c59.333 -28 86.333 -70.333 81 -127c-11.333 -129.333 -43.666 -256.333 -96.999 -381c-52 -122 -113.667 -217.667 -185 -287c-20 -19.333 -40.667 -29 -62 -29
c-43.333 0 -103.333 49.333 -180 148c-8.66699 11.333 -13 21 -13 29c0 10 5.66699 15 17 15s22.333 -4.66699 33 -14c39.333 -33.333 73 -50 101 -50c27.333 0 53.666 16 78.999 48c46 58.667 87.667 138.334 125 239.001c42.667 113.333 64 214.666 64 303.999
c0 34.667 -11.667 52 -35 52c-13.333 0 -28.333 -7 -45 -21c-82 -70.667 -165.333 -171.334 -250 -302.001c-89.333 -139.333 -154.333 -273.666 -195 -402.999c-7.33301 -24.667 -16.666 -37 -27.999 -37c-5.33301 0 -12.333 3 -21 9c-34 22.667 -53.333 36 -58 40
c-13.333 13.333 -20 30.666 -20 51.999c0 10.667 1.66699 23.667 5 39c78 424.667 178 786.334 300 1085c92 224.667 174.667 370.667 248 438c19.333 18 38 27 56 27c18.667 0 42.334 -11 71.001 -33z" />
    <glyph glyph-name="c" unicode="c" horiz-adv-x="602" 
d="M586 737c0 -103.333 -14.3359 -186.667 -43.0029 -250c-12 -26 -30.667 -32 -56 -18c-37.333 20.667 -56 37.667 -56 51c0 6 4.33301 12.333 13 19c22.667 64 33 113.667 31 149c-1.33301 30 -16.333 45 -45 45c-3.33301 0 -8.33301 0.833008 -15 2.5s-12 2.5 -16 2.5
c-23.333 0 -52 -22 -86 -66c-37.333 -49.333 -73 -118 -107 -206c-28 -72.667 -46.667 -135 -56 -187c-7.33301 -37.333 -11 -71.333 -11 -102c0 -102 32.333 -152 97 -150c56.667 1.33301 139.667 72.333 249 213c10.667 12.667 20.334 19 29.001 19s13 -5.33301 13 -16
c0 -5.33301 -1.66699 -12 -5 -20c-35.333 -86.667 -81.666 -163 -138.999 -229c-14 -16.667 -38.667 -25 -74 -25c-21.333 0 -47.333 4.33301 -78 13c-61.333 4 -110.333 23.667 -147 59c-39.333 38 -57.666 87.667 -54.999 149c2.66699 70.667 27.334 168.667 74.001 294
c50 136 102.333 234.667 157 296c25.333 28 46.666 42 63.999 42s51.333 -14.667 102 -44c27.333 10 54.333 15 81 15c52.667 0 79 -18.667 79 -56z" />
    <glyph glyph-name="d" unicode="d" horiz-adv-x="823" 
d="M1276 1552c8 -6 11.9951 -12.6631 11.9951 -19.9961c0 -12.667 -8 -19 -24 -19c-6 0 -12.333 1.66699 -19 5c-31.333 15.333 -54.666 23 -69.999 23c-41.333 0 -87 -40.667 -137 -122c-183.333 -299.333 -317 -698 -401 -1196c17.333 16.667 40.666 42.667 69.999 78
c17.333 20.667 30 31 38 31c18 0 19.667 -10.333 5 -31c-64 -88.667 -106.333 -184.334 -127 -287.001c-8 -24.667 -18 -37 -30 -37c-6 0 -13.333 3 -22 9c-33.333 22.667 -52 36 -56 40c-13.333 12.667 -20 29.667 -20 51c0 11.333 1.66699 24.666 5 39.999
c28.667 154 52.334 268.667 71.001 344c-65.333 -94 -139.166 -187.833 -221.499 -281.5s-142.166 -152.834 -179.499 -177.501c-28.667 -19.333 -50 -29 -64 -29c-12 0 -30.333 9.66699 -55 29c-43.333 26.667 -65 57.667 -65 93c0 6 0.666992 12.667 2 20
c14 99.333 58.5 214.5 133.5 345.5s160.833 241.167 257.5 330.5c31.333 29.333 59.333 43.666 84 42.999c26 -1.33301 72.333 -33 139 -95c6 -5.33301 9 -11 9 -17c0 -10.667 -7 -16 -21 -16c-4.66699 0 -9.66699 1 -15 3c-46.667 20 -84.667 19.333 -114 -2
c-62.667 -46.667 -131.667 -127.667 -207 -243c-87.333 -133.333 -138.666 -253.333 -153.999 -360c-3.33301 -25.333 3.33398 -38 20.001 -38c22 0 49 15.667 81 47c74 72.667 153.667 164 239 274c87.333 114 143.333 200 168 258c14 32 25 62.667 33 92
c69.333 245.333 146.666 455 231.999 629c66.667 136 125.334 227.333 176.001 274c18.667 18 36.667 27 54 27c18.667 0 42.667 -11 72 -33z" />
    <glyph glyph-name="e" unicode="e" horiz-adv-x="600" 
d="M563 285c-162 -207.333 -276.002 -310.997 -342.002 -310.997c-31.333 0 -71 21.667 -119 65c-50 23.333 -75 54.666 -75 93.999c0 7.33301 0.666992 15 2 23c12 91.333 36.333 192.333 73 303c-24.667 12.667 -37 24.667 -37 36c0 9.33301 7 14 21 14
c10.667 0 21.667 -3 33 -9c59.333 133.333 112.666 228 159.999 284c30.667 37.333 58.334 56 83.001 56c11.333 0 39.333 -9.66699 84 -29c-3.33301 20 2.33398 31.667 17.001 35h47c28.667 0 43 -5 43 -15c0 -2 -1 -7.66699 -3 -17s-3 -18 -3 -26
c0 -24 0.333008 -53.667 1 -89s1 -59 1 -71c0 -82.667 -22.667 -140.334 -68 -173.001c-41.333 -30 -88 -45 -140 -45c-27.333 0 -72.666 7.33301 -135.999 22c-11.333 -20.667 -24 -61 -38 -121c-18.667 -76 -27.334 -143.333 -26.001 -202
c0.666992 -34.667 11.667 -52 33 -52c8 0 18.333 2 31 6c77.333 27.333 185 110.666 323 249.999c8.66699 8.66699 17.334 13 26.001 13c12.667 0 19 -6 19 -18c0 -7.33301 -3.33301 -15 -10 -23zM445.998 727.003c0 26 -5.66699 39 -17 39c-7.33301 0 -18 -5.33301 -32 -16
c-65.333 -52.667 -122.666 -145 -171.999 -277c13.333 -2 36.666 -4 69.999 -6c54 -2 94.333 10.333 121 37c20 20 31 53 33 99c-2 -34 -3 7.33301 -3 124z" />
    <glyph glyph-name="f" unicode="f" horiz-adv-x="498" 
d="M881 1501c10 -7.33301 15.001 -15.332 15.001 -23.999c0 -13.333 -8.33301 -20 -25 -20c-7.33301 0 -14.333 1.66699 -21 5c-38 20.667 -71.667 31 -101 31c-22 0 -41.667 -5.33301 -59 -16c-66.667 -42.667 -172.334 -265.334 -317.001 -668.001
c108 -16.667 176.333 -25 205 -25c15.333 0 23 -5.66699 23 -17c0 -12.667 -7.66699 -20.667 -23 -24c-78 -14.667 -157.333 -24 -238 -28c-91.333 -270 -162.666 -521 -213.999 -753c-41.333 -187.333 -62 -321 -62 -401c0 -6.66699 1 -16.834 3 -30.501s3 -24.167 3 -31.5
c0 -10.667 -3.66699 -16 -11 -16c-10 0 -33.667 11.333 -71 34c-44.667 26 -64 56.667 -58 92c56 296 154.333 664 295 1104c-52 -3.33301 -83.333 -4.66602 -94 -3.99902c-14 2 -23.667 8.66699 -29 20c-7.33301 18 -11 28 -11 30c0 10 10.667 17.667 32 23l92 21
c28 8 44.333 19 49 33c107.333 310.667 191.666 522.667 252.999 636c50.667 93.333 99 140 145 140c44 0 117 -37 219 -111z" />
    <glyph glyph-name="g" unicode="g" horiz-adv-x="795" 
d="M745 707c-204.667 -1062 -470.67 -1592.67 -798.003 -1592c-118 0 -245.667 65 -383 195c-12.667 12 -19 24.333 -19 37c0 19.333 9 29 27 29c9.33301 0 18.333 -3.66699 27 -11c108.667 -92.667 206 -139 292 -139c274.667 0 503.667 403.333 687 1210
c-111.333 -191.333 -208.333 -328.333 -291 -411c-33.333 -34 -63 -51 -89 -51c-24 0 -53.667 13.333 -89 40c-63.333 31.333 -93.666 82.666 -90.999 153.999c4 87.333 37.667 195.666 101 324.999c62 126 126.667 221 194 285c38 36 72.333 54 103 54
c22.667 0 47.667 -10 75 -30c4 -3.33301 30.667 -27 80 -71c10 -8.66699 15 -17.334 15 -26.001c0 -12 -8 -18 -24 -18c-10 0 -21.333 3 -34 9c-20 10.667 -39.667 16 -59 16c-28 0 -53.333 -10 -76 -30c-48.667 -42.667 -99.667 -112 -153 -208
c-58 -105.333 -93.667 -201.333 -107 -288c-3.33301 -23.333 -5 -43.666 -5 -60.999c0 -49.333 13.333 -74 40 -74c18 0 37 9 57 27c79.333 68 158 166.333 236 295c72.667 118.667 124.334 227.667 155.001 327c11.333 35.333 17 69 17 101c0 25.333 6 38 18 38
c12.667 0 37.334 -14 74.001 -42c22 -16.667 28.667 -46.667 20 -90z" />
    <glyph glyph-name="h" unicode="h" horiz-adv-x="856" 
d="M840 1552c8.66699 -6.66699 12.9971 -13.999 12.9971 -21.999c0 -12 -7.66699 -18 -23 -18c-6.66699 0 -13.667 2 -21 6c-30.667 15.333 -53.667 23 -69 23c-40.667 0 -86 -40.667 -136 -122c-176 -286.667 -306.333 -662 -391 -1126
c108.667 208.667 233 375.334 373 500.001c30 26.667 52 40 66 40c4 0 20.667 -9.33301 50 -28c35.333 -14.667 55.333 -24 60 -28c17.333 -15.333 26 -42 26 -80c0 -10.667 -0.666992 -22.334 -2 -35.001c-11.333 -118.667 -45.333 -262.334 -102 -431.001
c20.667 28 53.334 69 98.001 123c10.667 11.333 19.667 17 27 17s11 -4.33301 11 -13c0 -10 -4.33301 -21.333 -13 -34c-38.667 -56 -90 -138 -154 -246c-5.33301 -10.667 -18.333 -38.667 -39 -84c-8.66699 -21.333 -20.667 -32 -36 -32c-17.333 0 -42.333 11.667 -75 35
c-13.333 9.33301 -15.666 24 -6.99902 44c114.667 288 175.334 503 182.001 645c2 40.667 -3.66699 61 -17 61c-8.66699 0 -27 -11.333 -55 -34c-51.333 -41.333 -114.333 -114.666 -189 -219.999c-98.667 -138.667 -175 -280.334 -229 -425.001
c-14.667 -41.333 -28.334 -62 -41.001 -62c-11.333 0 -33.666 13.667 -66.999 41c-16.667 14 -22.334 37.333 -17.001 70c77.333 423.333 178 785 302 1085c92 223.333 175 369.333 249 438c18.667 17.333 37 26 55 26c18.667 0 42.334 -10.667 71.001 -32z" />
    <glyph glyph-name="i" unicode="i" horiz-adv-x="389" 
d="M465 1118c10.667 -8 16.001 -17 16.001 -27c0 -19.333 -28.667 -49.333 -86 -90c-38 -26 -74.667 -35.333 -110 -28c-20 4 -37.333 11.333 -52 22c-4.66699 4 -8.16699 8.16699 -10.5 12.5s-2.83301 7.83301 -1.5 10.5c2 2.66699 6 3.33398 12 2.00098
c61.333 53.333 101.666 91.666 120.999 114.999c15.333 17.333 26.333 26 33 26c12 0 38 -14.333 78 -43zM324.001 680c-16 -90 -57.668 -239.668 -125.001 -449.001c19.333 17.333 46 49 80 95c4.66699 6 9.33398 9 14.001 9c10.667 0 12 -9.33301 4 -28
c-3.33301 -7.33301 -31.333 -53 -84 -137c-40 -64 -69.333 -120.667 -88 -170c-6 -15.333 -17 -23 -33 -23s-37.667 7.66699 -65 23c-17.333 9.33301 -26 16.333 -26 21c0 4 3.66699 12.667 11 26c36 63.333 76 169.333 120 318c42 144 65.667 251 71 321c2 30 -1 45 -9 45
c-6 0 -16.667 -7.33301 -32 -22l-62 -58c-22 -20 -33 -21 -33 -3c0 5.33301 3 12 9 20c31.333 44 64.666 85.667 99.999 125c10.667 11.333 21 17 31 17c10.667 0 26.334 -7.33301 47.001 -22c30.667 -8 47.667 -13 51 -15c15.333 -9.33301 23 -26.666 23 -51.999
c0 -12 -1.33301 -25.667 -4 -41z" />
    <glyph glyph-name="j" unicode="j" horiz-adv-x="389" 
d="M496 1118c11.333 -8 16.999 -17 16.999 -27c0 -19.333 -29 -49.333 -87 -90c-39.333 -26.667 -76.333 -36 -111 -28c-22 5.33301 -39 12.666 -51 21.999c-4 4 -7.16699 8.16699 -9.5 12.5s-2.83301 7.83301 -1.5 10.5c2 2.66699 6.33301 3.33398 13 2.00098
c30.667 16.667 70.334 55 119.001 115c14 17.333 24.667 26 32 26c12 0 38.333 -14.333 79 -43zM337.999 692c-92.667 -427.333 -179.669 -746.999 -261.002 -958.999c-158 -412 -339.333 -618 -544 -618c-116.667 0 -244.334 65 -383.001 195c-12.667 12 -19 24.333 -19 37
c0 19.333 9.33301 29 28 29c8.66699 0 17.334 -3.66699 26.001 -11c108.667 -92.667 206.334 -139 293.001 -139c275.333 0 504.666 404 687.999 1212c18 80 34.333 164 49 252c-20.667 -20.667 -45.167 -47.334 -73.5 -80.001s-47.166 -53.5 -56.499 -62.5
s-17.666 -13.5 -24.999 -13.5c-13.333 0 -20 7.66699 -20 23c0 8.66699 3 17 9 25l146 178c10.667 14 16 22.667 16 26c0 25.333 8.66699 38 26 38c18 0 45.333 -14 82 -42c22 -16 28.333 -46 19 -90z" />
    <glyph glyph-name="k" unicode="k" horiz-adv-x="793" 
d="M932 -106c-62 -96 -112 -143.999 -150 -143.999c-46.667 0 -113.5 62.5 -200.5 187.5s-161.5 265.167 -223.5 420.5c-79.333 -98 -134.333 -212.667 -165 -344c-7.33301 -29.333 -16 -44 -26 -44c-4 0 -12 2.33301 -24 7c-55.333 24 -83 48.333 -83 73
c0 3.33301 4 25.666 12 66.999c76.667 423.333 176.667 785 300 1085c92 224 175 370 249 438c18.667 18 37 27 55 27c18.667 0 42.667 -11 72 -33l100 -82c9.33301 -6.66699 14 -14 14 -22c0 -12 -7.66699 -18 -23 -18c-7.33301 0 -14.666 2 -21.999 6
c-30.667 15.333 -53.667 23 -69 23c-42 0 -88 -40.667 -138 -122c-179.333 -292.667 -308.333 -674.334 -387 -1145c16 32.667 52.333 95 109 187c-7.33301 23.333 -11 37 -11 41c0 16 22.667 28.333 68 37c90.667 132 165 220.667 223 266c20.667 16 36.667 24 48 24
s32.333 -16.333 63 -49c48 -19.333 72 -43.333 72 -72c0 -9.33301 -1.33301 -21.333 -4 -36c-12.667 -55.333 -30.667 -104 -54 -146c-12 -22 -24.667 -33 -38 -33c-9.33301 0 -24 3.66699 -44 11c-38 13.333 -57 27 -57 41c0 8.66699 6 15.334 18 20.001
c28 24 45.333 71.333 52 142c1.33301 16.667 -3 25 -13 25c-6 0 -14 -3.66699 -24 -11c-73.333 -53.333 -136.333 -130.666 -189 -231.999c101.333 -312.667 216.666 -508.334 345.999 -587.001c16 -9.33301 32.333 -14 49 -14c24 0 42.333 7 55 21s24 21 34 21
c9.33301 0 14 -5 14 -15c0 -6 -2.66699 -13 -8 -21z" />
    <glyph glyph-name="l" unicode="l" horiz-adv-x="389" 
d="M840 1552c8.66699 -6.66699 13 -13.667 13 -21c0 -12.667 -7.66699 -19 -23 -19c-6.66699 0 -13.667 2 -21 6c-30.667 15.333 -53.667 23 -69 23c-42 0 -88 -40.667 -138 -122c-181.333 -295.333 -310.333 -677 -387 -1145c-2 -12.667 -5.33301 -29.667 -10 -51
c15.333 16 38 42 68 78c17.333 20.667 30 31 38 31c17.333 0 18.666 -10.333 3.99902 -31c-64 -91.333 -106.333 -187 -127 -287c-7.33301 -24.667 -16.666 -37 -27.999 -37c-5.33301 0 -12.333 3 -21 9c-34 22.667 -53.333 36 -58 40c-13.333 13.333 -20 30.666 -20 51.999
c0 10.667 1.66699 23.667 5 39c77.333 424.667 177 786.334 299 1085c92 225.333 174.333 371.333 247 438c20 18.667 40 27.667 60 27c18 -0.666992 41.333 -12 70 -34z" />
    <glyph glyph-name="m" unicode="m" horiz-adv-x="1317" 
d="M1255 319c-43.333 -64.667 -108 -178.668 -194 -342.001c-8 -14.667 -13 -22.334 -15 -23.001c-6 -3.33301 -20 -1.66602 -42 5.00098c-46 14 -69 27.333 -69 40c0 7.33301 3 18 9 32c50 116.667 92.833 241.167 128.5 373.5s52.834 233.833 51.501 304.5
c0 23.333 -8.33301 35 -25 35c-11.333 0 -24.666 -6.33301 -39.999 -19c-56.667 -46 -130 -135.333 -220 -268c-108 -160 -184.333 -309.667 -229 -449c-4.66699 -16 -8.66699 -25 -12 -27c-4 -2 -13.667 -0.333008 -29 5c-22.667 8 -44.334 19.333 -65.001 34
c-10 7.33301 -15 15 -15 23c0 1.33301 5 14.333 15 39c87.333 218.667 131 430.334 131 635.001c0 20.667 -6 31 -18 31c-8.66699 0 -19.667 -5.66699 -33 -17c-71.333 -60 -150.666 -163.333 -237.999 -310c-84 -140 -146.667 -271.333 -188 -394
c-10.667 -31.333 -21.667 -47 -33 -47c-13.333 0 -40.666 15 -81.999 45c-10.667 6 -16 12.333 -16 19c0 7.33301 7.33301 18.666 22 33.999c27.333 58 58.333 158 93 300c39.333 162 56.333 279.667 51 353l-51 -49.5l-54 -52.5c-8.66699 -8.66699 -16.334 -13 -23.001 -13
c-10 0 -15 6.66699 -15 20c0 10.667 3.66699 20 11 28c37.333 38.667 74.333 84.334 111 137.001c13.333 18.667 25 28 35 28c7.33301 0 21.666 -10.667 42.999 -32l50 -18c14 -6.66699 21 -19 21 -37c0 -5.33301 -0.666992 -11 -2 -17
c-16.667 -128.667 -42.334 -248.667 -77.001 -360c118 212 227.667 362.667 329 452c14 12.667 27.667 19 41 19c14 0 35.333 -9 64 -27c27.333 -12 45.333 -22.667 54 -32c10 -12 15 -30.667 15 -56c0 -136 -15.667 -257 -47 -363c130 206 248.333 359 355 459
c14 13.333 28.667 20 44 20c20 0 44.667 -13.333 74 -40c52 -8 76.667 -39.667 74 -95c-8 -160.667 -42.667 -316 -104 -466c33.333 39.333 59.333 73.333 78 102c8.66699 14 18.667 21 30 21c10 0 15 -5.33301 15 -16c0 -6.66699 -3 -14.667 -9 -24z" />
    <glyph glyph-name="n" unicode="n" horiz-adv-x="860" 
d="M801 356c-40 -60.667 -92 -148.671 -156 -264.004l-35 -90c-9.33301 -20.667 -21.666 -31 -36.999 -31c-12 0 -29.667 5 -53 15c-26 10.667 -39 21.334 -39 32.001c0 4.66699 4.33301 15 13 31c43.333 88 82 197.667 116 329c36.667 138 52.334 243.333 47.001 316
c-1.33301 29.333 -8 44 -20 44c-8.66699 0 -21.667 -8.33301 -39 -25c-168 -164 -313.333 -383.333 -436 -658c-15.333 -34 -33.333 -51 -54 -51c-14.667 0 -39 8.33301 -73 25c-13.333 6 -20.333 11.667 -21 17c0 2.66699 3.66699 12 11 28c38.667 84.667 77 192 115 322
c40.667 140.667 63.667 250.334 69 329.001c1.33301 24 0.666016 36 -2.00098 36c-0.666992 0 -10 -9 -28 -27s-43 -41.333 -75 -70c-6 -6 -12.667 -9 -20 -9c-9.33301 0 -14 3.66699 -14 11c0 5.33301 3.33301 11.333 10 18c28.667 36.667 66.334 82.334 113.001 137.001
c10 11.333 20.333 17 31 17c16 0 30 -11.667 42 -35c54 -16 79.333 -40.667 76 -74c-7.33301 -73.333 -45 -205.666 -113 -396.999c44.667 86 109.667 182.167 195 288.5s148.666 169.166 189.999 188.499c20.667 9.33301 35.334 14 44.001 14s22.667 -7.33301 42 -22
c55.333 -19.333 82.666 -51.333 81.999 -96c0 -46.667 -11.333 -121.667 -34 -225c-18 -85.333 -34.667 -151.666 -50 -198.999l74 96c5.33301 6.66699 10.666 10 15.999 10c10 0 15 -6.33301 15 -19c0 -4 -0.666992 -8 -2 -12z" />
    <glyph glyph-name="o" unicode="o" horiz-adv-x="713" 
d="M684 633c-1.33301 -59.333 -15.6709 -138.002 -43.0039 -236.002c-43.333 -154.667 -104.666 -274.667 -183.999 -360c-42 -45.333 -88.667 -68 -140 -68c-20 0 -45.667 4.33301 -77 13c-62.667 4 -113.667 23.667 -153 59c-42.667 38.667 -62.667 88.334 -60 149.001
c2.66699 70.667 27 169.334 73 296.001c50.667 138 103.334 237.333 158.001 298c26 29.333 47.333 44 64 44c22.667 0 59.334 -23.333 110.001 -70c14 6.66699 42.667 19 86 37c22 7.33301 38.667 11 50 11c26 0 55 -24.333 87 -73c20.667 -30 30.334 -63.333 29.001 -100z
M568.995 603.998c4.66699 44.667 7 73 7 85c0 28 -8.66699 42 -26 42c-6.66699 0 -15.334 -1.33301 -26.001 -4l-155 -63c-18 -7.33301 -28.333 -11 -31 -11c-5.33301 0 -10.666 6.33301 -15.999 19c-38.667 -47.333 -74.667 -115.666 -108 -204.999
c-26 -70 -44 -132.667 -54 -188c-7.33301 -37.333 -11 -71.333 -11 -102c0 -102.667 31.667 -152.667 95 -150c25.333 0.666992 52.666 10.667 81.999 30c56 38 108.333 114 157 228c46.667 107.333 75.334 213.666 86.001 318.999z" />
    <glyph glyph-name="p" unicode="p" horiz-adv-x="844" 
d="M809 616c-8 -112.667 -37.6641 -233.668 -88.9971 -363.001c-48 -120.667 -95.333 -203 -142 -247c-26.667 -24.667 -53.667 -37 -81 -37c-30.667 0 -81.667 24.667 -153 74c-14 9.33301 -21 19 -21 29c0 12.667 9 19 27 19c7.33301 0 18 -2.33301 32 -7s25.333 -7 34 -7
c48.667 0 92.334 31 131.001 93c32.667 53.333 63.667 125 93 215c35.333 112 50.666 208.333 45.999 289c-2 38.667 -15 58 -39 58c-21.333 0 -47.333 -14.667 -78 -44c-216 -206.667 -368 -453.667 -456 -741c-50 -163.333 -83.333 -314.666 -100 -453.999
c-0.666992 -4.66699 -9.66699 -120.334 -27 -347.001c-2.66699 -32.667 -10.667 -49 -24 -49c-14 0 -39 16.333 -75 49c-26 24 -36 53.333 -30 88c29.333 332 109.666 701.667 240.999 1109c103.333 318.667 185.333 525.334 246 620.001c36 55.333 68 82.333 96 81
c28 -0.666992 81.333 -25.667 160 -75c10.667 -6.66699 16 -13.667 16 -21c0 -10 -8 -15 -24 -15c-4 0 -10.667 0.833008 -20 2.5s-16.333 2.5 -21 2.5c-42 0 -85.667 -35.667 -131 -107c-26.667 -40.667 -60.334 -109 -101.001 -205s-70 -175 -88 -237
c98 160 212 297.333 342 412c20 17.333 38 26 54 26c7.33301 0 25.666 -10 54.999 -30c90.667 -32 133 -92.333 127 -181z" />
    <glyph glyph-name="q" unicode="q" horiz-adv-x="733" 
d="M721 756c11.333 -10.667 16.998 -23.335 16.998 -38.002c0 -11.333 -16 -54 -48 -128c-44 -102 -94 -257 -150 -465c-44 -162 -74.333 -287.667 -91 -377c34.667 66.667 65.334 118 92.001 154c7.33301 10 17 15 29 15c16 0 24 -7.33301 24 -22c0 -6 -2 -12.667 -6 -20
c-118.667 -206 -185.667 -438.667 -201 -698c-3.33301 -61.333 -11 -92 -23 -92s-42.667 24.333 -92 73c-18 18 -27 40.333 -27 67c0 6.66699 6.33301 52 19 136c22 147.333 59.667 329.666 113 546.999c44 179.333 76.667 300 98 362
c-65.333 -113.333 -144.333 -207.333 -237 -282c-12.667 -10 -26.667 -15 -42 -15c-22 0 -44.333 9.66699 -67 29c-44.667 14.667 -75.667 30.334 -93 47.001c-21.333 20.667 -31.333 50 -30 88c4 99.333 36 212 96 338c56 119.333 116.333 210.333 181 273
c42 40.667 81 61 117 61c34.667 0 90.334 -34.667 167.001 -104c10 -8.66699 15 -16.334 15 -23.001c0 -8.66699 -7 -13 -21 -13c-7.33301 0 -15.333 1.66699 -24 5c-42 16 -71.667 24 -89 24c-36.667 0 -74.667 -24.333 -114 -73
c-51.333 -63.333 -97.333 -138.333 -138 -225c-51.333 -108.667 -77 -203 -77 -283c0 -46.667 15.667 -70 47 -70c19.333 0 40.333 11 63 33c70 66.667 141.667 160.334 215 281.001c50.667 83.333 90.334 158.333 119.001 225c27.333 62.667 45.666 113.667 54.999 153
l4 40c2.66699 16.667 9 25.334 19 26.001c16 0.666992 42.667 -15.666 80 -48.999z" />
    <glyph glyph-name="r" unicode="r" horiz-adv-x="643" 
d="M674 752c0 -87.333 -11.668 -170.67 -35.001 -250.003c-7.33301 -24 -17.333 -36 -30 -36c-9.33301 0 -30 13.333 -62 40c-16 13.333 -20 32.333 -12 57c18.667 60.667 28 109.334 28 146.001c0 12.667 -2.66699 19 -8 19c-8 0 -21 -12 -39 -36
c-138.667 -180.667 -242.334 -383.334 -311.001 -608.001c-22 -71.333 -40.667 -107 -56 -107c-6 0 -32.333 11.667 -79 35c-22.667 11.333 -30.334 33.333 -23.001 66c52.667 230.667 109.334 425.334 170.001 584.001c-49.333 -52 -80.666 -87.667 -93.999 -107
c-5.33301 -8 -12.666 -12 -21.999 -12c-11.333 0 -17 5 -17 15c0 6 2.66699 12.667 8 20c32.667 39.333 76.334 99.333 131.001 180c16.667 29.333 33.334 44 50.001 44c12 0 36.333 -9.33301 73 -28c20.667 -10.667 24 -25 10 -43
c-14.667 -19.333 -42.334 -87.666 -83.001 -204.999c-38.667 -114 -65.334 -203.333 -80.001 -268c90.667 202 193.667 380.333 309 535c22 29.333 39.667 44 53 44c12 0 28.333 -8 49 -24c28 -3.33301 45.667 -7.66602 53 -12.999c11.333 -8 17 -24 17 -48z" />
    <glyph glyph-name="s" unicode="s" horiz-adv-x="500" 
d="M516 801c0 -30 -8.00098 -78 -24.001 -144c-6 -22.667 -12.667 -37.334 -20 -44.001c-3.33301 -3.33301 -14.666 -8.33301 -33.999 -15c-24.667 -9.33301 -40 -14 -46 -14c-10 0 -15 6.66699 -15 20c0 7.33301 1.33301 17 4 29c16 66 22.167 111.833 18.5 137.5
s3.83301 41.834 22.5 48.501c32.667 16.667 53.667 25 63 25c20.667 0 31 -14.333 31 -43zM355.999 227c2 -80 -42.3369 -134.667 -133.004 -164c-11.333 -28 -22 -47.333 -32 -58c-15.333 -16 -38 -25.333 -68 -28c-19.333 -1.33301 -40 -0.333008 -62 3l-145 22
c-16 2.66699 -25.667 12.334 -29 29.001c2.66699 18 21.334 28.667 56.001 32c47.333 3.33301 117.333 11.666 210 24.999c34.667 8 59.334 27.667 74.001 59c8.66699 16 13 35.667 13 59c0 42 -21 116 -63 222c-41.333 103.333 -60.666 172.333 -57.999 207
c5.33301 83.333 82.333 141.333 231 174c14.667 3.33301 22 -2 22 -16c0 -8 -5.33301 -14.333 -16 -19c-72 -31.333 -108 -70 -108 -116c0 -18 3.33301 -40.5 10 -67.5s26.667 -91.833 60 -194.5c24.667 -74 37.334 -130.333 38.001 -169z" />
    <glyph glyph-name="t" unicode="t" horiz-adv-x="479" 
d="M608 1276c18.667 -10 28.0029 -21.3301 28.0029 -33.9971c0 -8.66699 -6.33301 -13 -19 -13c-2.66699 0 -6.83398 0.5 -12.501 1.5s-9.83398 1.5 -12.501 1.5c-25.333 0 -56 -27.667 -92 -83c-32 -49.333 -76.333 -156.666 -133 -321.999
c-5.33301 -14.667 -7.33301 -23.334 -6 -26.001c2 -4.66699 10.667 -7.33398 26 -8.00098c39.333 -3.33301 92 -2 158 4c22.667 2 34 -7.66699 34 -29c0 -14.667 -8.66699 -23.667 -26 -27c-14 -2 -87.667 -8 -221 -18c-80 -234 -128.667 -432 -146 -594
c-0.666992 -8.66699 -1 -16.334 -1 -23.001c0 -22.667 5.66699 -34 17 -34c18 0 72.333 43.667 163 131c10.667 10.667 21 16 31 16c8.66699 0 14 -3.66699 16 -11c2 -8 -1 -17.333 -9 -28c-54 -71.333 -107 -132 -159 -182c-22 -20.667 -40.333 -31 -55 -31
s-37.334 11.667 -68.001 35c-38 10 -57 30 -57 60c0 4.66699 0.666992 10 2 16c24.667 172 73 383.667 145 635c-35.333 4.66699 -67.333 9.33398 -96 14.001c-12.667 2 -19 10 -19 24c0 15.333 6.66699 24.666 20 27.999s38 10.666 74 21.999
c22 7.33301 43.333 17.333 64 30c71.333 220.667 127.333 363.667 168 429c23.333 37.333 48.333 56 75 56c25.333 0 62.333 -13.333 111 -40z" />
    <glyph glyph-name="u" unicode="u" horiz-adv-x="813" 
d="M805 725c-88.667 -164.667 -154.999 -358.001 -198.999 -580.001l68 125c3.33301 9.33301 8.66602 14 15.999 14c10 0 15 -6.33301 15 -19c0 -4 -1 -8.33301 -3 -13c-42.667 -97.333 -70.667 -172.333 -84 -225c-8 -33.333 -18.667 -50 -32 -50s-39.333 13 -78 39
c-20.667 14.667 -27.667 40.667 -21 78c28 145.333 61.667 271.666 101 378.999c-128.667 -209.333 -236.667 -363.666 -324 -462.999c-19.333 -22 -40.333 -33 -63 -33c-18.667 0 -40.667 7.66699 -66 23c-46 8 -69 32 -69 72c0 7.33301 0.666992 15.333 2 24
c16.667 190.667 51.334 349 104.001 475l-51 -47c-8.66699 -7.33301 -15.334 -9.33301 -20.001 -6c-5.33301 4 -4.33301 11.667 3 23c36 52.667 57.333 87.334 64 104.001c20.667 52 42.334 92.333 65.001 121c12 14.667 24.667 22 38 22c18 0 44.333 -10.667 79 -32
c9.33301 -6 14 -12 14 -18l-22 -33c-33.333 -50.667 -68.666 -140 -105.999 -268c-40.667 -138.667 -61.334 -251.667 -62.001 -339c0 -28.667 6 -43 18 -43c10.667 0 28 12.333 52 37c51.333 54.667 125.666 158 222.999 310c86 134 138 221.333 156 262
c30 68 54.333 108 73 120c12 8 22.667 12 32 12s27.333 -7 54 -21s40 -24.333 40 -31c0 -2 -2.33301 -4.66699 -7 -8s-8 -7 -10 -11z" />
    <glyph glyph-name="v" unicode="v" horiz-adv-x="711" 
d="M727 723l-57.0029 -134.997c4.66699 -13.333 19.667 -36 45 -68c4.66699 -6.66699 3.66699 -13.334 -3 -20.001s-15.667 -10 -27 -10c-16 0 -30 7.33301 -42 22c-44 -99.333 -94 -200.333 -150 -303c-58.667 -109.333 -100.667 -177 -126 -203c-22 -22 -44 -33 -66 -33
c-20.667 0 -39 8.33301 -55 25c-25.333 -10.667 -43.666 -16 -54.999 -16c-23.333 0 -41.333 20.333 -54 61c-17.333 57.333 -26 139 -26 245c0 151.333 13 264.333 39 339c-14.667 -13.333 -42.667 -42.666 -84 -87.999c-7.33301 -8 -15.666 -12 -24.999 -12
c-12.667 0 -19 5.66699 -19 17c0 6 3 13 9 21l157 215c16.667 24 34 36 52 36c20 0 50.667 -16 92 -48c8.66699 -7.33301 13 -15.333 13 -24c0 -16.667 -12 -29 -36 -37c-58.667 -125.333 -88 -266.333 -88 -423c0 -80.667 9.66699 -148 29 -202
c7.33301 -21.333 17.333 -32 30 -32s27.334 11.333 44.001 34c51.333 71.333 102 158.666 152 261.999c44.667 92.667 74.334 167 89.001 223c-8.66699 15.333 -13 35.666 -13 60.999c0 45.333 14.667 105.666 44 180.999c12.667 31.333 29 47 49 47
c11.333 0 34.666 -10.333 69.999 -31c17.333 -10 26 -23.333 26 -40c0 -12 -4.66699 -33.333 -14 -64z" />
    <glyph glyph-name="w" unicode="w" horiz-adv-x="1055" 
d="M1047 516c9.33301 -8.66699 14.002 -17.999 14.002 -27.999c0 -20 -9 -30 -27 -30c-4 0 -17.333 7.33301 -40 22c-10.667 7.33301 -19.667 12.666 -27 15.999c-84 -231.333 -155.667 -388.333 -215 -471c-22.667 -32 -46 -48 -70 -48c-10.667 0 -34 5.66699 -70 17
c-30.667 10 -49.667 18.667 -57 26s-15 26 -23 56c-30 120 -45 218.333 -45 295c-32.667 -46.667 -87.334 -115.667 -164.001 -207c-72.667 -87.333 -117 -142.666 -133 -165.999c-8 -12.667 -19.333 -19 -34 -19c-18.667 0 -48 15.333 -88 46
c-10 7.33301 -15 14.333 -15 21c0 10 13.667 25.333 41 46c22.667 66 42.334 150.667 59.001 254c16 101.333 24 188.333 24 261c0 36.667 -2.33301 65 -7 85c-14 -14 -43.333 -50 -88 -108c-7.33301 -10 -16 -15 -26 -15c-14.667 0 -22 7 -22 21c0 6 2.33301 12 7 18
c20.667 26.667 50 69.667 88 129c12 22.667 27.667 38 47 46c4.66699 2 30 8.66699 76 20c12 2.66699 21.333 4 28 4c12 0 19.333 -6.33301 22 -19c2 -9.33301 3 -32.333 3 -69c0 -209.333 -23 -391.666 -69 -546.999c122 120 205 236.667 249 350
c5.33301 63.333 10.666 108.666 15.999 135.999c8.66699 46 22.667 85.333 42 118c16 28.667 33.667 43 53 43c16 0 40.667 -11.667 74 -35c18.667 -12.667 28 -24.334 28 -35.001c0 -6 -5.33301 -23.667 -16 -53c-20 -56 -44.667 -104.333 -74 -145
c-6 -44 -9 -89.667 -9 -137c0 -98 13.333 -199.667 40 -305c7.33301 -29.333 16.666 -44 27.999 -44c12.667 0 28 17.333 46 52c99.333 192 160.666 336.667 183.999 434l-27 36.5c-9.33301 13 -14 26.833 -14 41.5c0 13.333 3.33301 29 10 47l20 91
c10.667 39.333 28.334 59 53.001 59c20 0 47 -9.66699 81 -29c20 -12 30 -31.333 30 -58c0 -22 -7.66699 -51.667 -23 -89l-34 -81c6 -7.33301 24 -25 54 -53z" />
    <glyph glyph-name="x" unicode="x" horiz-adv-x="672" 
d="M702 711c-25.333 -31.333 -84.0039 -89.999 -176.004 -175.999c-88.667 -82.667 -139 -132 -151 -148c16.667 -69.333 42.667 -158.666 78 -267.999c12.667 -28.667 27 -43 43 -43c10 0 27.667 9.33301 53 28c6.66699 5.33301 13.667 8 21 8c12.667 0 19 -6 19 -18
c0 -6 -2.33301 -12 -7 -18c-58.667 -66.667 -104.667 -102.334 -138 -107.001c-37.333 -4.66699 -65.333 17.333 -84 66c-28 74 -55 163.333 -81 268c-251.333 -264.667 -380.666 -461.334 -387.999 -590.001c-1.33301 -36.667 4.33398 -65.334 17.001 -86.001
c15.333 -24 14 -36 -4 -36c-7.33301 0 -15 4.66699 -23 14c-29.333 34 -48 59.333 -56 76c-12.667 24.667 -18.667 56 -18 94c1.33301 54.667 48.333 141.334 141 260.001c84.667 109.333 188 221.333 310 336c-41.333 164.667 -76 266.334 -104 305.001
c-12.667 16.667 -24 25 -34 25s-24.667 -7 -44 -21c-8 -5.33301 -15.333 -8 -22 -8c-10 0 -15 4 -15 12c0 8.66699 6 17.667 18 27c60.667 44 106 73.333 136 88c22 10.667 36 16 42 16c14 0 25 -11.667 33 -35c11.333 -31.333 41.333 -135 90 -311
c100.667 103.333 168.334 176.333 203.001 219c58.667 72 89.334 129.333 92.001 172c1.33301 22.667 -1.33398 42 -8.00098 58c-7.33301 16.667 -4.66602 25 8.00098 25c4.66699 0 9.66699 -3 15 -9c47.333 -58.667 71 -104.334 71 -137.001c0 -28 -12.333 -56.667 -37 -86
z" />
    <glyph glyph-name="y" unicode="y" horiz-adv-x="834" 
d="M776 692c-92.667 -427.333 -179.671 -747.003 -261.004 -959.003c-157.333 -412 -338 -618 -542 -618c-119.333 0 -247.666 65 -384.999 195c-12 11.333 -18 23.333 -18 36c0 20 9.33301 30 28 30c9.33301 0 18.333 -3.66699 27 -11
c108.667 -92.667 205.667 -139 291 -139c156.667 0 299 130.667 427 392c100.667 204.667 188.334 479.334 263.001 824.001c4.66699 24.667 12.334 62.334 23.001 113.001c-70 -114 -148.333 -226.333 -235 -337c-83.333 -106.667 -149 -180 -197 -220
c-26.667 -22 -48 -33 -64 -33c-12.667 0 -25.667 7 -39 21l-43 53c-6.66699 8 -10 15.333 -10 22v2c1.33301 8 7.33301 13.667 18 17c32 43.333 62 137 90 281c21.333 113.333 36 221 44 323c1.33301 24 -1.66699 36 -9 36c-2 0 -17.667 -12 -47 -36
c-46.667 -39.333 -72 -59 -76 -59c-9.33301 0 -14 4.66699 -14 14c0 4.66699 2 9.33398 6 14.001c11.333 14 36.666 49 75.999 105c35.333 50 59 75 71 75c9.33301 0 22 -4 38 -12c34 5.33301 53 8 57 8c22.667 0 34 -17.333 34 -52c0 -58 -16.667 -171.5 -50 -340.5
s-60.666 -278.167 -81.999 -327.5c66.667 52.667 153.334 156 260.001 310c104 150 168.667 263 194 339c1.33301 44.667 11 67 29 67c14 0 40 -14.333 78 -43c21.333 -16 27.333 -46 18 -90z" />
    <glyph glyph-name="z" unicode="z" horiz-adv-x="655" 
d="M670 766c0 -18 -9 -47.998 -27 -89.998c-9.33301 -22.667 -23.333 -34 -42 -34c-10 0 -28.667 3.66699 -56 11c-54.667 -51.333 -111.334 -118 -170.001 -200c20 0 47.333 1 82 3s56.334 3 65.001 3c17.333 0 26 -4.66699 26 -14c0 -8 -7.33301 -13.667 -22 -17
c-64 -16 -141 -38.667 -231 -68c-78.667 -100 -129.334 -174.333 -152.001 -223c24.667 0 77.167 -5.16699 157.5 -15.5s135.833 -15.5 166.5 -15.5c39.333 0 71.333 18.667 96 56c6.66699 10 13.667 15 21 15c13.333 0 16 -10.667 8 -32
c-7.33301 -18 -27.333 -56.667 -60 -116c-22 -41.333 -56 -62 -102 -62c-30 0 -83.167 11.333 -159.5 34s-133.833 34 -172.5 34c-16 0 -30.333 -0.666992 -43 -2c-18 -40 -38.333 -61.333 -61 -64c-14.667 0 -27.667 10.333 -39 31c-13.333 22.667 -20 42 -20 58
c0 16.667 6.66699 32 20 46c24.667 27.333 56 41 94 41c58.667 66 101 119.333 127 160c-2 12.667 -6 31 -12 55c-4.66699 19.333 -7 32.666 -7 39.999c0 8 1.66699 14.667 5 20c12.667 20.667 55 31 127 31l176 217c-58 14.667 -118.667 22 -182 22c-42 0 -75 -8 -99 -24
s-47.667 -46.333 -71 -91c-8.66699 -16 -18.334 -24 -29.001 -24c-8 0 -12 5.66699 -12 17c0 6 1.33301 12.667 4 20c24.667 73.333 48.334 130.666 71.001 171.999c13.333 23.333 24.333 38 33 44c14.667 10 40.667 15 78 15c60 0 163.667 -17.667 311 -53
c29.333 24 48.333 36 57 36c6.66699 0 14.334 -1.66699 23.001 -5c14 -8 21 -18.333 21 -31z" />
    <glyph glyph-name="braceleft" unicode="{" horiz-adv-x="819" 
d="M930 1436c16 0 23.9971 -9 23.9971 -27c0 -20 -10 -30.333 -30 -31c-68 -1.33301 -114 -9.16602 -138 -23.499s-46.333 -47.5 -67 -99.5l-141 -415c-19.333 -51.333 -51 -95.333 -95 -132c-38.667 -33.333 -76 -53 -112 -59c57.333 -40 86 -84.667 86 -134
c0 -22.667 -4.33301 -48.334 -13 -77.001l-118 -370c-11.333 -36.667 -17 -66 -17 -88c0 -57.333 42.333 -86 127 -86c20 0 30 -10.333 30 -31c0 -18 -8.66699 -27 -26 -27c-92.667 2 -158 12.333 -196 31c-44.667 22 -67 59 -67 111c0 26 5.33301 56 16 90
c26.667 67.333 78.334 208.666 155.001 423.999c4 11.333 6 22.333 6 33c0 47.333 -36.667 90 -110 128c-8 4.66699 -12 12.334 -12 23.001c0 22.667 8.66699 33.667 26 33c40.667 -2.66699 80.334 6 119.001 26c44 22.667 72.667 54.667 86 96l125 443
c28.667 95.333 78.334 149.333 149.001 162h193z" />
    <glyph glyph-name="bar" unicode="|" horiz-adv-x="819" 
d="M580 1427l-15 -1216c-2 -180.667 14.333 -283 49 -307c14 -10 21 -22 21 -36c0 -26 -20 -38 -60 -36l-73 4c-40.667 2.66699 -60.667 34 -60 94l15 1231c0 43.333 -3.33301 91 -10 143c-9.33301 72 -23 115.333 -41 130c-17.333 10 -26 21 -26 33
c0 12.667 9.33301 22 28 28l108 18c36 0 57.333 -28.667 64 -86z" />
    <glyph glyph-name="braceright" unicode="}" horiz-adv-x="819" 
d="M766 1210c-27.333 -67.333 -79.332 -208.666 -155.999 -423.999c-3.33301 -11.333 -5 -22.333 -5 -33c0 -47.333 36.667 -90 110 -128c8 -4.66699 12 -12.334 12 -23.001c0 -22.667 -9 -33.667 -27 -33c-40.667 2.66699 -80 -6 -118 -26
c-44.667 -22.667 -73.334 -55 -86.001 -97l-125 -442c-29.333 -95.333 -79.333 -149.333 -150 -162h-192c-16 0 -24 9 -24 27c0 20 10 30.333 30 31c68 1.33301 113.833 9.16602 137.5 23.499s46.167 47.5 67.5 99.5l141 415c19.333 51.333 50.666 95.333 93.999 132
c39.333 33.333 77 53 113 59c-58 40 -87 84.667 -87 134c0 22.667 4.33301 48.334 13 77.001l119 370c10.667 36.667 16 66 16 88c0 57.333 -42.333 86 -127 86c-19.333 0 -29 10.333 -29 31c0 18 8.33301 27 25 27c92.667 -2 158.334 -12.333 197.001 -31
c44 -22 66 -59 66 -111c0 -26 -5 -56 -15 -90z" />
    <glyph glyph-name="asciitilde" unicode="~" horiz-adv-x="922" 
d="M893 764c-30.667 -37.333 -68.668 -77.6631 -114.001 -120.996c-51.333 -48.667 -82.333 -71.334 -93 -68.001c-44 8.66699 -101.333 54 -172 136c-43.333 40.667 -83.666 63.667 -120.999 69c-22 6 -72.333 -32.667 -151 -116c0 -20 -6.33301 -30 -19 -30
c-11.333 0 -23 7 -35 21c-19.333 24 -29 38.667 -29 44c0 6 2.33301 12 7 18c30 37.333 68.333 78.666 115 123.999c52 49.333 84 72.666 96 69.999c38 -7.33301 94.667 -54.333 170 -141c30.667 -28.667 56.334 -47.334 77.001 -56.001l42 -14
c29.333 -4 79.666 36.333 150.999 121c2 18.667 10 28 24 28c11.333 0 22.333 -6.66699 33 -20c19.333 -22.667 29 -37 29 -43c0 -6.66699 -3.33301 -14 -10 -22z" />
    <glyph glyph-name="nonbreakingspace" unicode="&#xa0;" horiz-adv-x="369" 
 />
    <glyph glyph-name="exclamdown" unicode="&#xa1;" horiz-adv-x="492" 
d="M565 1253l-14.001 -69c-6 -20.667 -15.667 -31 -29 -31c-4.66699 0 -10 1.33301 -16 4c-57.333 22.667 -86 41 -86 55c0 4.66699 2 11.667 6 21c8.66699 20 21 64.333 37 133c2.66699 13.333 14.334 15.333 35.001 6c49.333 -22 74 -48.333 74 -79
c0 -8 -2.33301 -21.333 -7 -40zM466.999 891c-36.667 -159.333 -91.667 -341.668 -165 -547.001c-58.667 -164.667 -100 -269 -124 -313c-18.667 -35.333 -35.667 -53 -51 -53c-2 0 -12.333 2.66699 -31 8c-67.333 18 -101 36 -101 54c0 12 11.333 19 34 21
c128.667 222 241.334 506.667 338.001 854c8.66699 32.667 8 57.334 -2 74.001c-2 3.33301 -3 6.33301 -3 9c0 7.33301 4.66699 11 14 11c13.333 0 30.666 -8 51.999 -24c29.333 -22 44 -41.333 44 -58c0 -8.66699 -1.66699 -20.667 -5 -36z" />
    <glyph glyph-name="cent" unicode="&#xa2;" horiz-adv-x="672" 
d="M639 836c0 -102 -14.3379 -184.668 -43.0049 -248.001c-12 -27.333 -30.333 -34.333 -55 -21c-37.333 20 -56 37 -56 51c0 6.66699 4.33301 13.667 13 21c20.667 40 33 87 37 141c1.33301 26 -1.66699 42.333 -9 49l-260 -700c12.667 -2.66699 20.334 -4 23.001 -4
c36.667 2.66699 83 30.334 139 83.001c46.667 43.333 83.667 86.666 111 129.999c8.66699 14 18 21 28 21c8.66699 0 13 -5.66699 13 -17c0 -6 -1.66699 -12.667 -5 -20c-33.333 -81.333 -79.666 -158 -138.999 -230c-17.333 -21.333 -42.666 -29.333 -75.999 -24
c-21.333 0 -46.333 4 -75 12c-20 0 -31 2 -33 6l-14 -41c-11.333 -30.667 -10 -51.667 4 -63c5.33301 -3.33301 6.66602 -8.66602 3.99902 -15.999c-2.66699 -6.66699 -7.66699 -9 -15 -7l-45 23c-11.333 5.33301 -9 27.666 7 66.999l18 47
c-89.333 34 -132.333 98.333 -129 193c2.66699 70 27.334 168 74.001 294c50.667 136.667 103 235.334 157 296.001c26 28 47.667 42 65 42c18.667 0 53 -14.667 103 -44c2.66699 1.33301 9.66699 3.33301 21 6l24 69c10.667 30 6.66699 51.333 -12 64
c-5.33301 3.33301 -6.66602 8.33301 -3.99902 15s7.33398 9 14.001 7c22 -6 39 -12.667 51 -20c10.667 -6 8.66699 -29.333 -6 -70l-20 -57c60 6 90 -12.333 90 -55zM486.995 843.999c-43.333 2 -83.5 -21.332 -120.5 -69.999s-72.167 -117 -105.5 -205
c-27.333 -72.667 -46 -135.334 -56 -188.001c-6.66699 -34.667 -10 -67 -10 -97c0 -60.667 12 -104.667 36 -132z" />
    <glyph glyph-name="sterling" unicode="&#xa3;" horiz-adv-x="1044" 
d="M1020 1212c-3.33301 -56.667 -6.66797 -98.333 -10.001 -125c-6 -47.333 -15.667 -92.333 -29 -135c-10 -32 -30 -48 -60 -48c-6.66699 0 -22 2.33301 -46 7s-36 10.667 -36 18c0 6.66699 4.33301 17.334 13 32.001c25.333 42 38 110.667 38 206c0 18 -1 33.667 -3 47
c-5.33301 40.667 -25.666 61 -60.999 61c-20 0 -42 -9.33301 -66 -28c-59.333 -44.667 -121.333 -133.334 -186 -266.001c-40.667 -82.667 -97.667 -219.334 -171 -410.001c75.333 6 201.666 13 378.999 21c38 0.666992 63.333 -11.666 76 -36.999c2.66699 -4 8 -26 16 -66
c1.33301 -4.66699 2 -9 2 -13c0 -10.667 -5 -19 -15 -25c-13.333 -5.33301 -26.666 -11 -39.999 -17c-36.667 -16.667 -62.167 -15.667 -76.5 3s-46.833 28 -97.5 28c-178.667 0 -275 -0.666992 -289 -2c-30.667 -80 -62 -168 -94 -264
c-14 -43.333 -29.667 -66.666 -47 -69.999c175.333 0 362.333 -10.333 561 -31c30 -2.66699 48.667 -1 56 5c2 2 10 17.667 24 47c8.66699 17.333 17.667 26 27 26c8.66699 0 16.667 -7.33301 24 -22c28 -54 42 -93 42 -117c0 -19.333 -12.667 -40.666 -38 -63.999
c-28.667 -26 -50.667 -39 -66 -39c-10.667 0 -28.667 3.66699 -54 11c-154.667 43.333 -326.667 65 -516 65c-52 0 -102.667 -2 -152 -6c-32 -2.66699 -51 -6.33398 -57 -11.001c-6.66699 -10.667 -13 -21.334 -19 -32.001c-17.333 -29.333 -38.333 -44 -63 -44
c-16 0 -26.333 7.33301 -31 22c-19.333 58 -29 93.667 -29 107c0 41.333 47 67.333 141 78c22.667 2 48.667 3.66699 78 5c14 52 36 128.333 66 229c-32 86.667 -48 135 -48 145c0 14 8.66699 24 26 30c10 4 39 10 87 18c170.667 541.333 325 814.333 463 819
c26.667 0.666992 82 -18.333 166 -57c22 1.33301 39 2 51 2c26 0 43.333 -4.33301 52 -13s13 -26 13 -52c0 -9.33301 -0.333008 -22 -1 -38z" />
    <glyph glyph-name="currency" unicode="&#xa4;" horiz-adv-x="936" 
d="M815 963c1.33301 6.66699 1.99902 13 1.99902 19c0 43.333 -28.333 65 -85 65c-22.667 0 -51.667 -3.66699 -87 -11c-61.333 -12 -101 -18 -119 -18c-78 -73.333 -134.667 -177 -170 -311c-7.33301 -28.667 -11 -55 -11 -79c0 -42.667 10.333 -75.667 31 -99
s47 -34.333 79 -33c34.667 1.33301 67.334 9.33301 98.001 24c60 30 116.333 91 169 183c49.333 87.333 80.333 174 93 260zM400.999 1034c-11.333 19.333 -33.667 54.999 -67 106.999c-6 8.66699 -9 17.334 -9 26.001c0 29.333 27.667 54 83 74
c-1.33301 -2.66699 -2 -6 -2 -10c0 -34 19.667 -75.667 59 -125l4 4c10 8 22.333 12 37 12c35.333 0 66 -15 92 -45c58.667 22 109.334 35 152.001 39c32 3.33301 50 5 54 5c30 0 61.667 -18 95 -54c69.333 42.667 109 74.667 119 96c22.667 -21.333 34 -48.333 34 -81
c0 -23.333 -8.66699 -38 -26 -44l-96 -41v-12c0 -32.667 -11 -83.334 -33 -152.001c-32.667 -101.333 -79 -187.333 -139 -258c47.333 -26.667 73.333 -49 78 -67c0.666992 -3.33301 1 -6.66602 1 -9.99902c0 -27.333 -20.333 -50 -61 -68
c-6.66699 21.333 -31.334 51.333 -74.001 90c-2 -2 -5 -4.66699 -9 -8s-7 -6 -9 -8c-45.333 -36.667 -95 -55 -149 -55c-22 0 -50.667 3.33301 -86 10c-90 10.667 -153 33.667 -189 69c-50 -46.667 -78 -80.667 -84 -102c-40 33.333 -60 63.333 -60 90c0 5.33301 1 10 3 14
c8 21.333 41.333 47.333 100 78v21c3.33301 44 22.333 106 57 186c37.333 85.333 79 158.333 125 219z" />
    <glyph glyph-name="yen" unicode="&#xa5;" horiz-adv-x="1155" 
d="M1206 1329c12.667 -13.333 19.001 -24.6621 19.001 -33.9951c0 -12 -7 -28 -21 -48c-185.333 -273.333 -324 -486.333 -416 -639c28 0 68.333 0.666992 121 2c48.667 3.33301 81 13.666 97 30.999c7.33301 8.66699 15 13 23 13c10 0 15 -6 15 -18
c0 -8 -2.66699 -17.333 -8 -28c-20.667 -46 -35.334 -72 -44.001 -78c-16 -11.333 -55.333 -16 -118 -14c-5.33301 0 -51 2 -137 6c-14.667 -24.667 -36.334 -65.667 -65.001 -123c73.333 0 135.333 1.33301 186 4c54 3.33301 88.333 13.666 103 30.999
c6.66699 8.66699 13.667 13 21 13c9.33301 0 14 -6.33301 14 -19c0 -7.33301 -2.33301 -16.333 -7 -27c-21.333 -46 -35.666 -71.667 -42.999 -77c-15.333 -12 -54.333 -17 -117 -15l-204 6c-94.667 -190 -142 -321 -142 -393c0 -58.667 9 -103.667 27 -135
c4.66699 -8 7 -15.667 7 -23c0 -18 -8.33301 -27 -25 -27c-10 0 -19.667 5 -29 15c-79.333 84.667 -119 152 -119 202c0 18.667 5.33301 40 16 64c32.667 73.333 85.334 172.333 158.001 297c-162.667 0 -250 -0.666992 -262 -2c-33.333 -4 -52.333 -6.66699 -57 -8
c-12.667 -3.33301 -23.667 -11.333 -33 -24c-6.66699 -10 -13.667 -15 -21 -15c-12 0 -12.667 15 -2 45c16 44.667 28.333 72.334 37 83.001c11.333 14 29 20 53 18c68.667 -7.33301 170 -11 304 -11l-25 123c-53.333 0.666992 -125.666 -1.33301 -216.999 -6
c-17.333 -1.33301 -34.666 -3 -51.999 -5c-14 -2.66699 -24.667 -11.334 -32 -26.001c-5.33301 -9.33301 -11.333 -14 -18 -14c-12.667 0 -13.667 15.667 -3 47c15.333 43.333 28.166 71.166 38.499 83.499s27.833 17.166 52.5 14.499c70 -6 138.667 -10 206 -12
c-71.333 237.333 -159.333 423 -264 557c-23.333 30.667 -48.333 46 -75 46c-26 0 -71.333 -30.333 -136 -91c-10.667 -10 -21.334 -15 -32.001 -15c-14 0 -21 7.33301 -21 22c0 10.667 4.66699 22 14 34c124.667 152.667 211 229 259 229c22.667 0 43 -12.667 61 -38
c62.667 -88.667 134.334 -233.334 215.001 -434.001c61.333 -152 107 -279 137 -381c237.333 372.667 367.666 591 390.999 655c-32.667 -14.667 -61.334 -40.667 -86.001 -78c-6 -10 -12 -15 -18 -15c-12 0 -29 24.667 -51 74c-4 8 -6 15.667 -6 23c0 18 13.333 39 40 63
c35.333 32 86.666 72.333 153.999 121c14.667 10.667 29.334 16 44.001 16c22 0 53 -21.667 93 -65z" />
    <glyph glyph-name="brokenbar" unicode="&#xa6;" horiz-adv-x="819" 
d="M369 518c6.66699 48.667 29.667 74.666 69 77.999l70 6c14 1.33301 21 -1.66699 21 -9c0 -8 -5 -15.333 -15 -22c-12.667 -8 -25.667 -96.667 -39 -266c-15.333 -198 -5 -309.333 31 -334c12 -8 18 -18 18 -30c0 -27.333 -21.667 -39 -65 -35l-74 6
c-34.667 2.66699 -51 33.334 -49 92.001c7.33301 236 18.333 407.333 33 514zM516 816.999c-6 -52 -28.332 -77.998 -66.999 -77.998l-70 -6c-14 -1.33301 -21 1.66699 -21 9c0 8 5 15.333 15 22c19.333 12 33.666 124.667 42.999 338c6 142 -7 223.333 -39 244
c-15.333 9.33301 -23 19.333 -23 30c0 13.333 10.333 21.666 31 24.999l111 18c14 0 26.333 -10.5 37 -31.5s16 -42.5 16 -64.5c0 -152.667 -11 -321.334 -33 -506.001z" />
    <glyph glyph-name="section" unicode="&#xa7;" horiz-adv-x="774" 
d="M852 1389c7.33301 -40.667 7.33398 -102.999 0.000976562 -186.999c-2.66699 -29.333 -6.83398 -47.5 -12.501 -54.5s-22.167 -15.5 -49.5 -25.5c-21.333 -8 -34.333 -12 -39 -12c-12 0 -16.667 22.667 -14 68c5.33301 85.333 2.66602 144.666 -8.00098 177.999
c-6 20 -8.66699 33.333 -8 40c2 10 11 17.667 27 23c30.667 18.667 50.334 28 59.001 28c23.333 0 38.333 -19.333 45 -58zM572.001 82.001c0 -67.333 -40.999 -115.002 -122.999 -143.002c-11.333 -45.333 -19.333 -71.666 -24 -78.999
c-14 -24.667 -40.333 -38.667 -79 -42c-22.667 -2.66699 -49.334 -2 -80.001 2l-194 28c-21.333 2.66699 -35 15.667 -41 39c0 17.333 21.667 24.333 65 21c91.333 -7.33301 168 -4 230 10c66.667 15.333 106.667 48.666 120 99.999c4.66699 12.667 7 26.667 7 42
c0 60 -42.5 167 -127.5 321s-127.5 256.333 -127.5 307c0 100 85 169.667 255 209c18.667 4.66699 28 -0.666016 28 -15.999c0 -8 -6 -15 -18 -21c-88.667 -42 -133 -89 -133 -141c0 -28 8.66699 -63 26 -105l131 -264c56.667 -119.333 85 -208.666 85 -267.999z
M539.002 409.999c54.667 26.667 86.668 58.667 96.001 96c4.66699 12 7 25.667 7 41c0 61.333 -42.667 169.666 -128 324.999s-128 258 -128 308c0 64 35 118 105 162c48 30 103.333 51.667 166 65c20.667 4.66699 31 -1.33301 31 -18
c0 -7.33301 -5.33301 -13.666 -16 -18.999c-100.667 -48.667 -151 -103.667 -151 -165c0 -26.667 7.33301 -57.834 22 -93.501s55.667 -119.5 123 -251.5c48.667 -96.667 78 -169.667 88 -219c5.33301 -26 8 -50 8 -72c0 -56.667 -20 -102 -60 -136
c-32.667 -27.333 -88.334 -53.666 -167.001 -78.999c-4.66699 -1.33301 -8.66699 -2 -12 -2c-12 0 -18 5.66699 -18 17c0 16 11.333 29.667 34 41z" />
    <glyph glyph-name="dieresis" unicode="&#xa8;" 
d="M690 1161c2.66699 -24.667 -8.33398 -68.333 -33.001 -131c-22.667 -58 -39 -87 -49 -87c-2 0 -4 0.333008 -6 1c-23.333 14 -36.333 29 -39 45c0 8 2 12 6 12c22.667 58.667 38.334 125 47.001 199c0.666992 12 5 25 13 39c3.33301 0.666992 19 -14.333 47 -45
c8 -9.33301 12.667 -20.333 14 -33zM476.999 1161c2 -27.333 -9 -71.668 -33 -133.001c-22 -57.333 -38 -86 -48 -86c-8 0 -17.333 5.83301 -28 17.5s-16.667 21.5 -18 29.5c0 8.66699 2 12 6 10c20.667 54.667 35.667 121 45 199c1.33301 12.667 6.33301 26.334 15 41.001
c3.33301 0.666992 19 -14.333 47 -45c7.33301 -8 12 -19 14 -33z" />
    <glyph glyph-name="copyright" unicode="&#xa9;" horiz-adv-x="1339" 
d="M956 219c-26 -20.667 -60.667 -42.332 -104 -64.999c-52.667 -27.333 -82.667 -43.333 -90 -48c-36.667 -22.667 -93.667 -34 -171 -34c-72 0 -121.667 15 -149 45c-66 3.33301 -126 21.666 -180 54.999c-58.667 36 -94.667 80.333 -108 133c-6 24 -9 55.667 -9 95
c0 148.667 28 287 84 415c62.667 141.333 145.334 264.333 248.001 369c117.333 118.667 231.333 180 342 184c34.667 1.33301 69.834 -2.83398 105.501 -12.501s51.167 -20.5 46.5 -32.5c137.333 -29.333 230.666 -58.666 279.999 -87.999
c83.333 -47.333 125.666 -120.333 126.999 -219c3.33301 -162.667 -37.667 -315 -123 -457c-80 -134.667 -179.667 -248 -299 -340zM1200 633.002c34.667 70 51.999 161 51.999 273c0 46 -5 83.333 -15 112c-22.667 66 -52 117.333 -88 154c-30 30.667 -74.333 59 -133 85
c-40.667 18.667 -85.667 27 -135 25c-196 -6.66699 -369.667 -173.334 -521 -500.001c-66 -143.333 -99 -264.666 -99 -363.999c0 -72.667 18.667 -128.667 56 -168c44.667 -46.667 135 -70 271 -70c56.667 0 104.334 6.33301 143.001 19c202.667 63.333 359 208 469 434z
M1008 1026c0 -94 -12.333 -168.335 -37 -223.002c-12 -26 -29 -31.667 -51 -17c-34 18.667 -51 33.667 -51 45c0 6 4 11.667 12 17c21.333 54.667 30.666 99.667 27.999 135c-1.33301 27.333 -15 41 -41 41c-2.66699 0 -7 0.666992 -13 2s-11 2 -15 2
c-20.667 0 -46 -19.667 -76 -59c-36 -47.333 -71 -107.666 -105 -180.999c-32 -68.667 -51.667 -123 -59 -163c-6.66699 -34 -10 -65 -10 -93c0 -91.333 29.333 -136.333 88 -135c50 2 124.333 66.333 223 193c9.33301 11.333 18.333 17 27 17c8 0 12 -5 12 -15
c0 -5.33301 -1.33301 -11.666 -4 -18.999c-28 -70 -70.333 -138 -127 -204c-12.667 -15.333 -34.667 -23 -66 -23c-18.667 0 -41.667 3.33301 -69 10c-126.667 18.667 -187.334 81.667 -182.001 189c2.66699 60 27.334 146.333 74.001 259c49.333 118 99 205 149 261
c22.667 26 42 39 58 39s46.333 -13.667 91 -41c24.667 8.66699 49.334 13 74.001 13c46.667 0 70 -16.667 70 -50z" />
    <glyph glyph-name="ordfeminine" unicode="&#xaa;" horiz-adv-x="797" 
d="M874 1327c-26 -68 -58.666 -167.67 -97.999 -299.003l47 55c7.33301 8 14.666 12 21.999 12c14.667 0 16.334 -8.66699 5.00098 -26c-45.333 -67.333 -74.666 -132.333 -87.999 -195c-4.66699 -19.333 -14.667 -29 -30 -29c-14.667 0 -34.334 9 -59.001 27
c-14 10.667 -19.333 26.667 -16 48c20 117.333 43.333 210 70 278c-40.667 -65.333 -95.334 -135.333 -164.001 -210c-58 -63.333 -101.667 -104.666 -131 -123.999c-20.667 -13.333 -35.667 -20 -45 -20c-8 0 -20.333 6.66699 -37 20l-51 28c-20 14 -29 30.667 -27 50
c8.66699 69.333 39.167 149.833 91.5 241.5s112.166 168.834 179.499 231.501c24 22.667 57.333 33 100 31c16 -0.666992 48 -22.667 96 -66c4.66699 -4 7 -8 7 -12c0 -13.333 -8.33301 -16.666 -25 -9.99902c-34 13.333 -60.667 12.666 -80 -2.00098
c-44 -32.667 -91.667 -87.334 -143 -164.001c-60 -88.667 -96.333 -170 -109 -244c-3.33301 -18 1.33398 -27 14.001 -27c17.333 0 36.666 10.333 57.999 31c51.333 50.667 106 113.334 164 188.001s96 132.334 114 173.001c6.66699 15.333 15 36.333 25 63
c6 22 12.667 33 20 33c2.66699 0 18.334 -9.66699 47.001 -29l30.5 -20c10.333 -6.66699 15.5 -14 15.5 -22c0 -3.33301 -1 -7 -3 -11z" />
    <glyph glyph-name="guillemotleft" unicode="&#xab;" horiz-adv-x="891" 
d="M867 779c0 -19.333 -19.332 -43.335 -57.999 -72.002c-41.333 -27.333 -104 -76 -188 -146c-32.667 -33.333 -49 -54 -49 -62c0 -2.66699 0.333008 -5 1 -7c58 -123.333 101 -226 129 -308c11.333 -31.333 17 -55.333 17 -72c0 -24 -15 -45 -45 -63
c-40 -23.333 -65.333 -35 -76 -35c-8 0 -12 4.66699 -12 14c0 8.66699 2 21 6 37s6 28.667 6 38c0 96 -55.333 224 -166 384c-2 3.33301 -3 7 -3 11c0 18 36.667 52 110 102c68.667 47.333 121.667 91 159 131c-1.33301 12.667 -2 21.334 -2 26.001
c0 20.667 24.667 46.334 74 77.001c22.667 14 37 21 43 21c9.33301 0 20.666 -10.167 33.999 -30.5s20 -35.5 20 -45.5zM519.001 782.998c0 -18.667 -19.332 -42.667 -57.999 -72c-42 -27.333 -105 -76 -189 -146c-32 -33.333 -48 -54 -48 -62c0 -2.66699 0.333008 -5 1 -7
c56 -120 99 -222.667 129 -308c11.333 -30.667 17 -55 17 -73c0 -24.667 -15 -46 -45 -64c-40 -23.333 -65.333 -35 -76 -35c-8 0 -12 5 -12 15c0 8.66699 2 21.167 6 37.5s6 28.833 6 37.5c0 94 -55.333 222.667 -166 386c-2 2.66699 -3 6 -3 10c0 18 36.333 52 109 102
c69.333 47.333 122.666 91 159.999 131c-3.33301 27.333 1.66699 48 15 62c4 4.66699 23 17.667 57 39c23.333 14 38 21 44 21c9.33301 0 20.5 -10 33.5 -30s19.5 -34.667 19.5 -44z" />
    <glyph glyph-name="logicalnot" unicode="&#xac;" horiz-adv-x="1096" 
d="M799 203c-3.33301 -14 -7.00098 -26.332 -11.001 -36.999c-9.33301 -24.667 -19.333 -39.667 -30 -45c-7.33301 -3.33301 -16.5 1.33398 -27.5 14.001s-16.167 28.334 -15.5 47.001c0.666992 37.333 10 103 28 197c12 55.333 26.333 144.666 43 267.999
c-116 12 -247.667 17 -395 15c-25.333 -0.666992 -43 -2 -53 -4c-20 -4 -34.333 -11.667 -43 -23c-15.333 -20 -41.333 -21.333 -78 -4c-13.333 5.33301 -25.833 10.833 -37.5 16.5s-17.5 14.167 -17.5 25.5c0 4 0.666992 8.33301 2 13c6 30 11 47.333 15 52
c12 16.667 37 26 75 28c212.667 10.667 409.334 4.66699 590.001 -18c60.667 -8 91 -34.333 91 -79c0 -28.667 -8.66699 -66.667 -26 -114c-1.33301 -26.667 -11.333 -65.334 -30 -116.001c-32 -84.667 -58.667 -163.334 -80 -236.001z" />
    <glyph glyph-name="sfthyphen" unicode="&#xad;" horiz-adv-x="868" 
d="M768 537c0 -10 -4.66602 -27.499 -13.999 -52.499s-17.333 -40.5 -24 -46.5c-9.33301 -8.66699 -27.333 -12 -54 -10c-146.667 9.33301 -283.334 14 -410.001 14c-68 0 -105.333 -6 -112 -18c-4.66699 -8 -12.667 -11 -24 -9c-12 2.66699 -16.333 9.66699 -13 21
c2 8 6.66699 31.333 14 70c5.33301 29.333 37.333 41 96 35c106.667 -10.667 240 -17 400 -19c61.333 -0.666992 95.333 5.66602 102 18.999c5.33301 9.33301 13 13.333 23 12c10.667 -0.666992 16 -6 16 -16z" />
    <glyph glyph-name="registered" unicode="&#xae;" horiz-adv-x="1339" 
d="M956 219c-26 -20.667 -60.667 -42.332 -104 -64.999c-52.667 -27.333 -82.667 -43.333 -90 -48c-36.667 -22.667 -93.667 -34 -171 -34c-72 0 -121.667 15 -149 45c-66 3.33301 -126 21.666 -180 54.999c-58.667 36 -94.667 80.333 -108 133c-6 24 -9 55.667 -9 95
c0 148.667 28 287 84 415c62.667 141.333 145.334 264.333 248.001 369c117.333 118.667 231.333 180 342 184c34.667 1.33301 69.834 -2.83398 105.501 -12.501s51.167 -20.5 46.5 -32.5c137.333 -29.333 230.666 -58.666 279.999 -87.999
c83.333 -47.333 125.666 -120.333 126.999 -219c3.33301 -162.667 -37.667 -315 -123 -457c-80 -134.667 -179.667 -248 -299 -340zM1200 633.002c34.667 70 51.999 161 51.999 273c0 46 -5 83.333 -15 112c-22.667 66 -52 117.333 -88 154c-30 30.667 -74.333 59 -133 85
c-40.667 18.667 -85.667 27 -135 25c-196 -6.66699 -369.667 -173.334 -521 -500.001c-66 -143.333 -99 -264.666 -99 -363.999c0 -72.667 18.667 -128.667 56 -168c44.667 -46.667 135 -70 271 -70c56.667 0 104.334 6.33301 143.001 19c202.667 63.333 359 208 469 434z
M992.999 976.002c0 41.333 -28.666 62.001 -85.999 62.001c-36 0 -74 -7.33301 -114 -22c-14.667 -74.667 -36 -149.667 -64 -225c22 -10.667 45 -16 69 -16c51.333 0 96.666 25.167 135.999 75.5s59 92.166 59 125.499zM758 741.003
c106 -181.333 172.001 -272.663 198.001 -273.996c14.667 -0.666992 30.667 5.33301 48 18c18 14.667 27 13.667 27 -3c0 -4 -1.66699 -9 -5 -15c-32.667 -56.667 -61.334 -86 -86.001 -88c-15.333 -1.33301 -34.333 7.66699 -57 27
c-44.667 37.333 -106.334 132 -185.001 284c-31.333 -109.333 -72.333 -213 -123 -311c-6 -12.667 -15.333 -20.334 -28 -23.001c-12 -3.33301 -22.333 -1.33301 -31 6c-24.667 17.333 -37 32.333 -37 45c0 6.66699 2 15 6 25c10.667 21.333 21.667 49.333 33 84
c0 24 2.66699 36.333 8 37c4.66699 2 15 -9 31 -33c25.333 51.333 56 127.333 92 228c12 32 36.667 115 74 249c-46.667 -15.333 -76 -26 -88 -32c-23.333 -12.667 -26 -45.667 -8 -99c0.666992 -2 1 -4 1 -6c0 -6.66699 -3.66699 -10.334 -11 -11.001
s-13.666 2.33301 -18.999 9c-13.333 17.333 -25 38.666 -35 63.999c-6.66699 16.667 -10 30 -10 40c0 20 13 38 39 54c30 18 77 35 141 51c1.33301 2.66699 4 15 8 37c3.33301 17.333 8.33301 26 15 26c8 -3.33301 18.667 -18.333 32 -45c74.667 18.667 126 27.667 154 27
c32 -0.666992 56.667 -23.334 74 -68.001c39.333 -26.667 59 -58 59 -94c0 -40 -24.833 -90.5 -74.5 -151.5s-92.5 -91.5 -128.5 -91.5c-30 0 -68 11.333 -114 34z" />
    <glyph glyph-name="overscore" unicode="&#xaf;" horiz-adv-x="1024" 
d="M1248 1490h-1024v97h1024v-97z" />
    <glyph glyph-name="degree" unicode="&#xb0;" horiz-adv-x="471" 
d="M446 1143c56.667 -8.66699 84.999 -35.001 84.999 -79.001c0 -21.333 -5.66699 -49 -17 -83c-13.333 -40 -23.333 -67 -30 -81c-10.667 -22.667 -26 -44.667 -46 -66c-29.333 -22 -64.666 -31 -105.999 -27c-10 -1.33301 -20.333 0 -31 4
c-87.333 12 -131.666 47.667 -132.999 107c-0.666992 30.667 7.33301 67.667 24 111c18 49.333 40.667 88 68 116c13.333 14 25.666 21 36.999 21c10.667 0 37.334 -16 80.001 -48c3.33301 -1.33301 5 -3.33301 5 -6c0 -4 -3 -7.5 -9 -10.5s-11 -3.5 -15 -1.5
c-10.667 2.66699 -22.667 -3.66602 -36 -18.999c-24 -26 -41.333 -71.667 -52 -137c-2 -12.667 -3 -24.334 -3 -35.001c0 -45.333 15.333 -67.666 46 -66.999c62 0.666992 104.333 71 127 211c5.33301 32 -1.33398 53.667 -20.001 65c-13.333 6 -20 12.333 -20 19
c0 5.33301 7 8 21 8c6.66699 0 15 -0.666992 25 -2z" />
    <glyph glyph-name="plusminus" unicode="&#xb1;" horiz-adv-x="868" 
d="M530 524c16.667 0 58.335 -0.669922 125.002 -2.00293c61.333 -1.33301 95.666 5 102.999 19c4.66699 9.33301 12.334 13.333 23.001 12c10.667 -0.666992 16 -6 16 -16s-4.66699 -27.667 -14 -53s-17.333 -40.666 -24 -45.999c-10 -8.66699 -28 -12 -54 -10
c-76.667 5.33301 -142.334 8.66602 -197.001 9.99902l-29 -135c-10 -49.333 -15.333 -78.333 -16 -87c-1.33301 -12.667 2 -22 10 -28c4.66699 -5.33301 5.66699 -12.666 3 -21.999c-2 -10 -6.66699 -15 -14 -15c-3.33301 0 -6.33301 1 -9 3c-8 4 -29.333 13.333 -64 28
c-18.667 7.33301 -28 21 -28 41c0 12.667 4.66699 33.334 14 62.001c16 48.667 31 100.334 45 155.001c-27.333 1.33301 -69 2 -125 2c-68 0 -105.667 -6 -113 -18c-4 -8 -11.667 -11 -23 -9c-12 2.66699 -16.667 9.66699 -14 21c2.66699 8 7.66699 31.333 15 70
c4.66699 29.333 36.667 41 96 35s121.333 -10.333 186 -13c8 30 19 77.333 33 142c12 62 13.333 96.667 4 104c-8.66699 7.33301 -11.667 16 -9 26s9 14.333 19 13c3.33301 -0.666992 19.666 -9.66699 48.999 -27s44 -34 44 -50c0 -8.66699 -2.33301 -20.667 -7 -36
c-12.667 -46 -27.667 -104.667 -45 -176zM705.001 101.997c0 -8 -4.16699 -23.168 -12.5 -45.501s-15.5 -36.166 -21.5 -41.499c-8.66699 -7.33301 -24.667 -10.333 -48 -9c-136 8 -259 12 -369 12c-61.333 0 -95.333 -5.33301 -102 -16c-4 -6.66699 -11 -9 -21 -7
c-11.333 2 -15.333 7.66699 -12 17c2 8 6 29.333 12 64c4 26 33.333 36 88 30c92 -8.66699 211.667 -14 359 -16c56 -0.666992 86.667 4.66602 92 15.999c4.66699 8.66699 11.667 12.667 21 12c9.33301 -1.33301 14 -6.66602 14 -15.999z" />
    <glyph glyph-name="twosuperior" unicode="&#xb2;" horiz-adv-x="702" 
d="M762 731c-2.66699 -8.66699 -8.99805 -14 -18.998 -16c-6.66699 0 -12.667 5.33301 -18 16c0.666992 6 -12.333 16.333 -39 31c-108 33.333 -208.333 50 -301 50c-14 0 -27.667 -0.333008 -41 -1c-7.33301 -9.33301 -19 -22.333 -35 -39
c-4.66699 -3.33301 -16.334 -4 -35.001 -2c-17.333 6.66699 -25.333 17.667 -24 33c2.66699 31.333 7.33398 56 14.001 74c11.333 38 38.666 57 81.999 57c8.66699 0 18.334 -0.666992 29.001 -2c104 84 177 152.333 219 205c34 42.667 51 87 51 133
c0 20.667 -21 28.667 -63 24c-41.333 -4 -90 -27.667 -146 -71c-13.333 -10.667 -20.333 -17.334 -21 -20.001c0 -0.666992 1.66699 -9.66699 5 -27c1.33301 -8.66699 0.666016 -14.334 -2.00098 -17.001c-2.66699 -2 -6.33398 -1.83301 -11.001 0.5
s-9.33398 5.5 -14.001 9.5c-10 9.33301 -22.333 23 -37 41c-12 18.667 -18 33 -18 43c0 10.667 6 20.334 18 29.001c117.333 84.667 210.333 127 279 127c15.333 -1.33301 31.666 -16.333 48.999 -45c34.667 7.33301 49.667 11 45 11c20.667 0 31 -24 31 -72
c0 -40.667 -3.66699 -70 -11 -88c-11.333 -29.333 -37.666 -65 -78.999 -107c-18.667 -18.667 -51.667 -45 -99 -79c-66 -47.333 -113.667 -82.333 -143 -105c98.667 -7.33301 198.334 -31.333 299.001 -72c27.333 -11.333 41 -36.666 41 -75.999c0 -16 -2 -31 -6 -45z" />
    <glyph glyph-name="threesuperior" unicode="&#xb3;" horiz-adv-x="711" 
d="M709 924c9.33301 -15.333 13.998 -34.668 13.998 -58.001c0 -36 -9.66699 -64.667 -29 -86c-50.667 -56 -119.334 -104 -206.001 -144c-81.333 -37.333 -152.666 -56 -213.999 -56c-25.333 0 -49.666 9.33301 -72.999 28c-5.33301 4 -24 22.667 -56 56
c-5.33301 6 -8 11.667 -8 17c0 10 5.33301 15 16 15c4.66699 0 9 -1.33301 13 -4c18.667 -11.333 38.334 -17 59.001 -17c28 0 72.333 12 133 36c158 62 255.667 122.667 293 182c14 21.333 10.667 38.333 -10 51c-29.333 18 -89.333 24.333 -180 19
c-41.333 -2.66699 -64 6 -68 26c-2.66699 14.667 -4 43.334 -4 86.001c0 11.333 10.333 21.666 31 30.999c104.667 48.667 173 97 205 145c7.33301 12 11 22.333 11 31c0 14.667 -11.667 22 -35 22c-24.667 0 -53 -8 -85 -24
c-60.667 -31.333 -95.334 -60.666 -104.001 -87.999c-2 -9.33301 -6 -15 -12 -17s-11 0.333008 -15 7c-20.667 31.333 -31 57.333 -31 78s9 37.667 27 51c58 42.667 116.667 73.334 176 92.001c15.333 4.66699 28 7 38 7c12.667 0 22.334 -4.33301 29.001 -13l19 -31
c36 -24 54 -61.667 54 -113c0 -28.667 -9.66699 -51.667 -29 -69c-39.333 -34.667 -104.333 -81.334 -195 -140.001c62 -6 103 -10.667 123 -14c44 -8 77.333 -20.333 100 -37c18 -12 27 -23.333 27 -34c0 -6 -4.66699 -17.667 -14 -35z" />
    <glyph glyph-name="acute" unicode="&#xb4;" 
d="M758 1208c5.33301 -2.66699 8 -6.00098 8 -10.001c0 -18 -13.667 -27 -41 -27c-18 0 -42.667 -12 -74 -36c-49.333 -39.333 -97 -88 -143 -146c-8.66699 -11.333 -18 -17 -28 -17c-13.333 0 -20 7.33301 -20 22c0 4.66699 1 9.33398 3 14.001
c28.667 62 77.667 129.333 147 202c21.333 22 41 33 59 33c8.66699 0 19 -2.66699 31 -8z" />
    <glyph glyph-name="mu1" unicode="&#xb5;" horiz-adv-x="813" 
d="M137 -326c8.66699 -22.667 24.6709 -43.002 48.0039 -61.002c20 -15.333 30 -25.666 30 -30.999c0 -7.33301 -5.33301 -11 -16 -11c-4.66699 0 -10.334 1 -17.001 3c-42 14.667 -71 27.667 -87 39c-22 14.667 -42 38.667 -60 72c-16 28.667 -24 73.667 -24 135
c0 178.667 53.667 429 161 751l-51 -47c-8.66699 -7.33301 -15.334 -9.33301 -20.001 -6c-5.33301 4 -4.33301 11.667 3 23c36 52.667 57.333 87.334 64 104.001c20.667 52 42.334 92.333 65.001 121c12 14.667 24.667 22 38 22c18 0 44.333 -10.667 79 -32
c9.33301 -6 14 -12 14 -18l-22 -33c-33.333 -50.667 -68.666 -140 -105.999 -268c-40.667 -138.667 -61.334 -251.667 -62.001 -339c0 -28.667 6 -43 18 -43c10.667 0 28 12.333 52 37c51.333 54.667 125.666 158 222.999 310c86 134 138 221.333 156 262
c30 68 54.333 108 73 120c12 8 22.667 12 32 12s27.333 -7 54 -21s40 -24.333 40 -31c0 -2 -2.33301 -4.66699 -7 -8s-8 -7 -10 -11c-88.667 -164.667 -155 -358 -199 -580l68 125c3.33301 9.33301 8.66602 14 15.999 14c10 0 15 -6.33301 15 -19c0 -4 -1 -8.33301 -3 -13
c-42.667 -97.333 -70.667 -172.333 -84 -225c-8 -33.333 -18.667 -50 -32 -50s-39.333 13 -78 39c-20.667 14.667 -27.667 40.667 -21 78c28 145.333 61.667 271.666 101 378.999c-128.667 -209.333 -236.667 -363.666 -324 -462.999c-18 -20.667 -40 -31 -66 -31
c-28.667 0 -56.334 11.667 -83.001 35c-7.33301 -44 -11 -88.333 -11 -133c0 -78 11 -147 33 -207z" />
    <glyph glyph-name="mu1" unicode="&#x3bc;" horiz-adv-x="813" 
d="M137 -326c8.66699 -22.667 24.6709 -43.002 48.0039 -61.002c20 -15.333 30 -25.666 30 -30.999c0 -7.33301 -5.33301 -11 -16 -11c-4.66699 0 -10.334 1 -17.001 3c-42 14.667 -71 27.667 -87 39c-22 14.667 -42 38.667 -60 72c-16 28.667 -24 73.667 -24 135
c0 178.667 53.667 429 161 751l-51 -47c-8.66699 -7.33301 -15.334 -9.33301 -20.001 -6c-5.33301 4 -4.33301 11.667 3 23c36 52.667 57.333 87.334 64 104.001c20.667 52 42.334 92.333 65.001 121c12 14.667 24.667 22 38 22c18 0 44.333 -10.667 79 -32
c9.33301 -6 14 -12 14 -18l-22 -33c-33.333 -50.667 -68.666 -140 -105.999 -268c-40.667 -138.667 -61.334 -251.667 -62.001 -339c0 -28.667 6 -43 18 -43c10.667 0 28 12.333 52 37c51.333 54.667 125.666 158 222.999 310c86 134 138 221.333 156 262
c30 68 54.333 108 73 120c12 8 22.667 12 32 12s27.333 -7 54 -21s40 -24.333 40 -31c0 -2 -2.33301 -4.66699 -7 -8s-8 -7 -10 -11c-88.667 -164.667 -155 -358 -199 -580l68 125c3.33301 9.33301 8.66602 14 15.999 14c10 0 15 -6.33301 15 -19c0 -4 -1 -8.33301 -3 -13
c-42.667 -97.333 -70.667 -172.333 -84 -225c-8 -33.333 -18.667 -50 -32 -50s-39.333 13 -78 39c-20.667 14.667 -27.667 40.667 -21 78c28 145.333 61.667 271.666 101 378.999c-128.667 -209.333 -236.667 -363.666 -324 -462.999c-18 -20.667 -40 -31 -66 -31
c-28.667 0 -56.334 11.667 -83.001 35c-7.33301 -44 -11 -88.333 -11 -133c0 -78 11 -147 33 -207z" />
    <glyph glyph-name="paragraph" unicode="&#xb6;" horiz-adv-x="1040" 
d="M205 -283c108 2.66699 199 55.665 273 158.998c64.667 90.667 137 252.334 217 485.001l274 851c-24 34.667 -55.667 59.334 -95 74.001c-44 -152.667 -121.667 -403 -233 -751c-192 -558 -337.333 -830.667 -436 -818zM223 -360.002
c-56 0 -113.665 14.001 -172.998 42.001c-53.333 24.667 -96 55 -128 91c-12.667 14 -19 26.333 -19 37c0 9.33301 4.66699 14 14 14c7.33301 0 16 -3.33301 26 -10c37.333 -28 62 -45.667 74 -53c34 -20.667 66.667 -33 98 -37c15.333 -2.66699 24.666 -3.66699 27.999 -3
c58 -8 129.667 85 215 279c45.333 104 126 321 242 651c-13.333 -1.33301 -45.333 -17.333 -96 -48c-48 -30 -82.667 -45 -104 -45c-10.667 0 -19.667 3 -27 9c-74 39.333 -111 84 -111 134c0 7.33301 0.666992 15.333 2 24c40 214 127.667 378.667 263 494
c108 92.667 211 134 309 124c71.333 -6.66699 122.333 -26.334 153 -59.001c8 18.667 14.333 42 19 70c3.33301 24.667 11 37 23 37c11.333 0 33.666 -13.667 66.999 -41c20 -16.667 22.667 -46.667 8 -90l-282 -890c-86 -262 -167 -443.667 -243 -545
c-92.667 -123.333 -212 -185 -358 -185z" />
    <glyph glyph-name="middot" unicode="&#xb7;" horiz-adv-x="344" 
d="M287 780c17.333 -6 26.001 -17.001 26.001 -33.001c0 -14 -13.667 -52.667 -41 -116c-20.667 -50 -43.667 -75 -69 -75c9.33301 0 -14.667 3 -72 9c-8 0.666992 -13 5 -15 13c-2.66699 7.33301 0.333008 12 9 14c34.667 78.667 55.667 133.334 63 164.001
c7.33301 28 17.666 42 30.999 42c11.333 0 34 -6 68 -18z" />
    <glyph glyph-name="cedilla" unicode="&#xb8;" 
d="M221 -2c-12 -28 -26.3359 -63.667 -43.0029 -107c24.667 5.33301 59 5.33301 103 0c22.667 -2.66699 37.334 -9 44.001 -19c4.66699 -7.33301 7 -23.333 7 -48c20 -26.667 30 -50 30 -70s-10 -38.333 -30 -55c-42.667 -34.667 -107.667 -62.667 -195 -84
c-5.33301 -1.33301 -10.666 -2 -15.999 -2c-24 0 -43.333 24.667 -58 74c-2 8 -3 14.667 -3 20c0 10.667 4.33301 16 13 16s18.334 -4.66699 29.001 -14c2.66699 -0.666992 5.66699 -1 9 -1c52.667 0 105.667 20.333 159 61c20 14.667 30 26.334 30 35.001
c0 10.667 -14 16.667 -42 18c-34 1.33301 -75.667 -4.33398 -125 -17.001c-18 -2.66699 -33 12.333 -45 45c-5.33301 14.667 -1.33301 32.667 12 54c16 24.667 41.333 60.667 76 108z" />
    <glyph glyph-name="onesuperior" unicode="&#xb9;" horiz-adv-x="516" 
d="M643 1374c8 -5.33301 12 -11 12 -17c0 -10.667 -10 -16.667 -30 -18c-37.333 -48 -71 -114.667 -101 -200c-31.333 -88.667 -51.666 -177.667 -60.999 -267c-3.33301 -28 -1.33301 -47 6 -57c11.333 -22.667 6.33301 -34 -15 -34c-6 0 -13.333 1.66699 -22 5l-74 30
c-16.667 9.33301 -25 23.666 -25 42.999c0 9.33301 1.66699 21.333 5 36c27.333 132.667 62 241.334 104 326.001c-39.333 -44 -86.333 -94 -141 -150c-4 -3.33301 -8.33301 -5 -13 -5c-16.667 0 -25 8.33301 -25 25c0 8 3.66699 15 11 21
c78.667 61.333 145 141.333 199 240c9.33301 16.667 21 22 35 16c9.33301 21.333 29 32 59 32c25.333 0 50.666 -8.66699 75.999 -26z" />
    <glyph glyph-name="ordmasculine" unicode="&#xba;" horiz-adv-x="797" 
d="M862 1307c0 -37.333 -10 -92.3311 -30 -164.998c-30.667 -108 -74 -191.667 -130 -251c-28.667 -31.333 -71.667 -47 -129 -47c-13.333 0 -31 2.66699 -53 8c-102.667 16 -158.667 66.667 -168 152c-5.33301 48.667 8.16699 117.667 40.5 207
s68.833 156.666 109.5 201.999c18 20.667 37.667 31 59 31c26.667 0 57.334 -16.333 92.001 -49l62 26c15.333 6 29.666 9 42.999 9c33.333 0 61.333 -17.333 84 -52c13.333 -20.667 20 -44.334 20 -71.001zM750 1286c6.66699 59.333 2.66504 89 -12.002 89
c-5.33301 0 -11.666 -1 -18.999 -3l-109 -43c-13.333 -5.33301 -20.333 -8 -21 -8c-4 0 -7.66699 4.66699 -11 14c-53.333 -64.667 -90.333 -154 -111 -268c-4.66699 -25.333 -7 -48.333 -7 -69c0 -74 22 -109.667 66 -107c17.333 0.666992 36.666 8 57.999 22
c38.667 26 74.334 77.667 107.001 155c30.667 72 50.334 144.667 59.001 218z" />
    <glyph glyph-name="guillemotright" unicode="&#xbb;" horiz-adv-x="891" 
d="M809 375c2 -2.66699 3.00293 -5.66699 3.00293 -9c0 -18.667 -37.5 -53.5 -112.5 -104.5s-127.167 -94.5 -156.5 -130.5c2 -28 -2.66699 -48.667 -14 -62c-4.66699 -4.66699 -24 -17.334 -58 -38.001c-23.333 -14.667 -38 -22 -44 -22
c-8.66699 0 -19.834 10.5 -33.501 31.5s-20.5 36.167 -20.5 45.5c0 19.333 19 43.333 57 72c42 26.667 104.667 74.334 188 143.001c34 34 51 54.667 51 62c0 3.33301 -0.333008 6 -1 8c-54.667 109.333 -98.334 212.333 -131.001 309c-10.667 30.667 -16 54.667 -16 72
c0 24.667 14.667 45.667 44 63c39.333 23.333 64.666 35 75.999 35c8 0 12 -5 12 -15c0 -8 -2 -20.167 -6 -36.5s-6 -28.833 -6 -37.5c0 -92 56 -220.667 168 -386zM461.003 379c2 -2.66699 2.99902 -5.66602 2.99902 -8.99902c0 -17.333 -37 -51.833 -111 -103.5
s-126.667 -95.5 -158 -131.5c2 -28 -2.66699 -48.333 -14 -61c-5.33301 -5.33301 -24.666 -18.333 -57.999 -39c-24.667 -15.333 -39.667 -23 -45 -23c-8.66699 0 -19.667 10.333 -33 31s-20 35.667 -20 45c0 20 19 44 57 72c41.333 26.667 104 75 188 145
c34 34.667 51 55.667 51 63c0 2.66699 -0.666992 5 -2 7c-56 112 -99.667 214.333 -131 307c-10.667 31.333 -16 55.666 -16 72.999c0 26 15 47.333 45 64c40 23.333 65.333 35 76 35c8 0 12 -5 12 -15c0 -8.66699 -2 -21 -6 -37s-6 -28.333 -6 -37
c0 -89.333 56 -218 168 -386z" />
    <glyph glyph-name="onequarter" unicode="&#xbc;" horiz-adv-x="1421" 
d="M619 1339c-38.667 -52 -72.332 -118.668 -100.999 -200.001c-41.333 -119.333 -62 -216.666 -62 -291.999c0 -13.333 2.33301 -24 7 -32c4 -6 6 -13 6 -21c0 -8.66699 -6.66699 -13 -20 -13c-7.33301 0 -27.333 6.66699 -60 20c-28.667 11.333 -45 19.333 -49 24
c-8.66699 8.66699 -13 20.334 -13 35.001c0 22.667 12 76.667 36 162c19.333 70.667 43.666 137 72.999 199l-110 -119c-22.667 -24 -37.667 -36 -45 -36c-16 0 -24 8 -24 24c0 7.33301 2.66699 14 8 20c2 1.33301 12.333 9.66602 31 24.999c64 52.667 121 125 171 217
c7.33301 12 15.666 18 24.999 18c2 0 5.33301 -0.666992 10 -2c10.667 21.333 30.334 32 59.001 32c26 0 52 -9 78 -27c6.66699 -5.33301 10 -11 10 -17c0 -10 -10 -15.667 -30 -17zM1136 1266l-709 -1014c-56 -80 -98.333 -155 -127 -225c-5.33301 -14 -8 -28.667 -8 -44
c0 -6 1.33301 -13.333 4 -22c2.66699 -7.33301 4 -14 4 -20c0 -14 -5.66699 -21 -17 -21c-6 0 -13 2.66699 -21 8l-62 43c-17.333 12 -26 28 -26 48c0 19.333 8 40.333 24 63l723 1026c77.333 110 116 192.333 116 247c0 7.33301 -2 16 -6 26c-2 6 -3 12.667 -3 20
c0 12.667 6 19 18 19c6 0 12.667 -2.33301 20 -7l62 -41c18.667 -12 28 -26.667 28 -44c0 -22.667 -6.66699 -43.334 -20 -62.001zM1128 128c-16.667 -74.667 -25.001 -126.002 -25.001 -154.002c0 -10 2.66699 -18.667 8 -26c2 -2.66699 3 -5 3 -7
c0 -12.667 -7 -19 -21 -19c-10.667 0 -34 10 -70 30c-6.66699 8.66699 -10 15.334 -10 20.001v0l35 154c-58 -1.33301 -99 -2 -123 -2c-54.667 0 -101 1.33301 -139 4c-6 -13.333 -15.667 -20 -29 -20c-24.667 0 -37 27.333 -37 82c0 22 9 35.333 27 40
c96.667 91.333 170.334 189 221.001 293l-15 24c-15.333 24 -23 37.333 -23 40c0 8 8.66699 12 26 12c6 0 21.333 19 46 57c28 44.667 44 70 48 76c5.33301 10.667 14.333 16 27 16s30.334 -6 53.001 -18c13.333 -7.33301 20 -16 20 -26c0 -19.333 -18.333 -61 -55 -125
c-25.333 -44 -59.333 -94.333 -102 -151c-39.333 -51.333 -74.333 -90.666 -105 -117.999c-36.667 -33.333 -55 -53.333 -55 -60c0 -2.66699 3.66699 -5 11 -7c2 0 41.333 -3 118 -9c24.667 -2 41 -3 49 -3c12.667 0 32.334 1 59.001 3c16.667 62 37 124 61 186
c27.333 72.667 49.666 112.334 66.999 119.001c6 2 19.333 3 40 3c12 0 18 -2.66699 18 -8c0 -3.33301 -3 -8.33301 -9 -15c-36.667 -34 -71 -127 -103 -279c37.333 0 60.333 10 69 30c3.33301 6 7.66602 9 12.999 9c8 0 13.667 -12 17 -36l4 -27
c3.33301 -18.667 5.33301 -30.334 6 -35.001c1.33301 -7.33301 2 -12.333 2 -15c0 -18 -11.333 -28.667 -34 -32c-25.333 -4 -56.333 -6 -93 -6z" />
    <glyph glyph-name="onehalf" unicode="&#xbd;" horiz-adv-x="1421" 
d="M579 1339c-38.667 -52 -72.332 -118.668 -100.999 -200.001c-41.333 -119.333 -62 -216.666 -62 -291.999c0 -13.333 2.33301 -24 7 -32c4 -6 6 -13 6 -21c0 -8.66699 -6.66699 -13 -20 -13c-7.33301 0 -27.333 6.66699 -60 20c-28.667 11.333 -45 19.333 -49 24
c-8.66699 8.66699 -13 20.334 -13 35.001c0 22.667 12 76.667 36 162c19.333 70.667 43.666 137 72.999 199l-110 -119c-22.667 -24 -37.667 -36 -45 -36c-16 0 -24 8 -24 24c0 7.33301 2.66699 14 8 20c2 1.33301 12.333 9.66602 31 24.999c64 52.667 121 125 171 217
c7.33301 12 15.666 18 24.999 18c2 0 5.33301 -0.666992 10 -2c10.667 21.333 30.334 32 59.001 32c26 0 52 -9 78 -27c6.66699 -5.33301 10 -11 10 -17c0 -10 -10 -15.667 -30 -17zM1096 1266l-709 -1014c-56 -80 -98.333 -155 -127 -225c-5.33301 -14 -8 -28.667 -8 -44
c0 -6 1.33301 -13.333 4 -22c2.66699 -7.33301 4 -14 4 -20c0 -14 -5.66699 -21 -17 -21c-6 0 -13 2.66699 -21 8l-62 43c-17.333 12 -26 28 -26 48c0 19.333 8 40.333 24 63l723 1026c77.333 110 116 192.333 116 247c0 7.33301 -2 16 -6 26c-2 6 -3 12.667 -3 20
c0 12.667 6 19 18 19c6 0 12.667 -2.33301 20 -7l62 -41c18.667 -12 28 -26.667 28 -44c0 -22.667 -6.66699 -43.334 -20 -62.001zM1250 -10c-6.66699 -0.666992 -12.665 4.66602 -17.998 15.999c0 6.66699 -13 17 -39 31c-110.667 33.333 -209.667 50 -297 50
c-19.333 0 -34.333 -0.333008 -45 -1c-4.66699 -6 -16.334 -19 -35.001 -39c-3.33301 -2 -9 -3 -17 -3c-3.33301 0 -9.33301 0.333008 -18 1c-16 6.66699 -24 17 -24 31c0 22.667 4.66699 48 14 76c12.667 38 40 57 82 57c6.66699 0 16.334 -0.666992 29.001 -2
c91.333 74.667 157.333 135 198 181c48 54 72 105.333 72 154c0 10 -3.5 17.333 -10.5 22s-17.5 7 -31.5 7c-27.333 0 -51 -4.66699 -71 -14c-41.333 -19.333 -76.333 -41.333 -105 -66c-7.33301 -6 -11.333 -10.333 -12 -13l5 -25c0.666992 -4 1 -7.33301 1 -10
c0 -6.66699 -2.33301 -10 -7 -10c-6.66699 0 -16 6.33301 -28 19c-32 32.667 -48 58.334 -48 77.001c0 9.33301 6 18.666 18 27.999c60 47.333 128 85.333 204 114c24.667 9.33301 47 14 67 14c9.33301 0 18.833 -3.83301 28.5 -11.5s19.167 -19.167 28.5 -34.5
c6.66699 0.666992 10.667 1.66699 12 3c10.667 6 16.667 9 18 9l16 -2v1v0v0h-1c20.667 -1.33301 31 -25.333 31 -72c0 -47.333 -6.66699 -83.333 -20 -108c-24.667 -43.333 -63.334 -85.333 -116.001 -126c-14.667 -12 -40 -30.667 -76 -56l-109 -80l-11 -9
c83.333 -7.33301 162.333 -23 237 -47c45.333 -14.667 73.666 -28.667 84.999 -42c12 -13.333 18 -33 18 -59c0 -37.333 -8.33301 -57.666 -25 -60.999z" />
    <glyph glyph-name="threequarters" unicode="&#xbe;" horiz-adv-x="1421" 
d="M589 1339c-38.667 -52 -72.332 -118.668 -100.999 -200.001c-41.333 -119.333 -62 -216.666 -62 -291.999c0 -13.333 2.33301 -24 7 -32c4 -6 6 -13 6 -21c0 -8.66699 -6.66699 -13 -20 -13c-7.33301 0 -27.333 6.66699 -60 20c-28.667 11.333 -45 19.333 -49 24
c-8.66699 8.66699 -13 20.334 -13 35.001c0 22.667 12 76.667 36 162c19.333 70.667 43.666 137 72.999 199l-110 -119c-22.667 -24 -37.667 -36 -45 -36c-16 0 -24 8 -24 24c0 7.33301 2.66699 14 8 20c2 1.33301 12.333 9.66602 31 24.999c64 52.667 121 125 171 217
c7.33301 12 15.666 18 24.999 18c2 0 5.33301 -0.666992 10 -2c10.667 21.333 30.334 32 59.001 32c26 0 52 -9 78 -27c6.66699 -5.33301 10 -11 10 -17c0 -10 -10 -15.667 -30 -17zM1106 1266l-709 -1014c-56 -80 -98.333 -155 -127 -225c-5.33301 -14 -8 -28.667 -8 -44
c0 -6 1.33301 -13.333 4 -22c2.66699 -7.33301 4 -14 4 -20c0 -14 -5.66699 -21 -17 -21c-6 0 -13 2.66699 -21 8l-62 43c-17.333 12 -26 28 -26 48c0 19.333 8 40.333 24 63l723 1026c77.333 110 116 192.333 116 247c0 7.33301 -2 16 -6 26c-2 6 -3 12.667 -3 20
c0 12.667 6 19 18 19c6 0 12.667 -2.33301 20 -7l62 -41c18.667 -12 28 -26.667 28 -44c0 -22.667 -6.66699 -43.334 -20 -62.001zM1264 282c9.33301 -16 14.002 -35.6689 14.002 -59.002c0 -34 -9.66699 -62.333 -29 -85c-46 -53.333 -114.667 -101.333 -206 -144
c-80.667 -37.333 -151 -56 -211 -56c-28.667 0 -55 10 -79 30c-40.667 34.667 -61 58.667 -61 72c0 9.33301 5 14 15 14c5.33301 0 10 -1.33301 14 -4c17.333 -11.333 36.666 -17 57.999 -17c20.667 0 51.667 7 93 21c84.667 28.667 164.334 66.334 239.001 113.001
c69.333 43.333 104 79.666 104 108.999c0 10 -6.33301 18.667 -19 26c-24 14 -62.667 21 -116 21c-14.667 0 -36 -0.666992 -64 -2h-17c-27.333 0 -44 7.33301 -50 22c-4 10 -6 36 -6 78c0 12 2 20.667 6 26s12.667 11 26 17c90.667 42 153.667 83.667 189 125
c18 20 27 37 27 51c0 7.33301 -2.83301 12.833 -8.5 16.5s-14.167 5.5 -25.5 5.5c-24.667 0 -53.334 -8 -86.001 -24c-62 -30.667 -97 -61 -105 -91c-2.66699 -10 -7.66699 -15 -15 -15c-4 0 -7.66699 2.66699 -11 8c-20.667 30 -31 56.333 -31 79c0 32 40 68 120 108
c55.333 27.333 95.666 41 120.999 41c14.667 0 27.667 -9.66699 39 -29c3.33301 -6 6.33301 -11 9 -15c18 -12.667 31.5 -28.167 40.5 -46.5s13.5 -39.166 13.5 -62.499c0 -26 -6.33301 -46.667 -19 -62c-20 -25.333 -88.333 -75.666 -205 -150.999
c85.333 -8 140.333 -15.667 165 -23c28.667 -8.66699 51.667 -20.667 69 -36c10.667 -10 16 -18.667 16 -26c0 -5.33301 -4.66699 -17 -14 -35z" />
    <glyph glyph-name="questiondown" unicode="&#xbf;" horiz-adv-x="956" 
d="M780 1321c5.33301 -2.66699 9.33398 -6.66797 12.001 -12.001s2.66699 -9.66602 0 -12.999c-2 -4 -6.66699 -5.33301 -14 -4c-63.333 -54 -107 -95.667 -131 -125c-16.667 -19.333 -29 -29 -37 -29c-12.667 0 -41.334 16 -86.001 48c-14 10 -21 20.667 -21 32
c0 16.667 29.667 51 89 103c33.333 29.333 60.333 44 81 44c8 0 43.667 -14.667 107 -44zM817.001 290.999c-157.333 -158 -302.668 -261.003 -436.001 -309.003c-32.667 -12 -60.334 -18 -83.001 -18c-36.667 0 -76.667 29 -120 87c-36 6 -68 17 -96 33
c-34 19.333 -51 40.333 -51 63c0 64.667 52.667 174 158 328c93.333 136.667 191.333 258.334 294 365.001c-85.333 -23.333 -122.333 -35 -111 -35c-18 0 -27 9 -27 27c0 12 8.66699 21.333 26 28c116 44.667 191.667 83 227 115c14.667 13.333 27.334 20 38.001 20
c20.667 0 41.334 -31.333 62.001 -94c1.33301 -4 2 -7.66699 2 -11c0 -10 -19 -31 -57 -63c-100 -83.333 -198 -189.666 -294 -318.999c-104 -140 -159.667 -249.333 -167 -328c-6 -68 25.667 -102 95 -102c19.333 0 39 4 59 12c143.333 60.667 269.666 153.667 378.999 279
c8.66699 10 13 22 13 36c0 8 -1.83301 18.833 -5.5 32.5s-5.5 22.834 -5.5 27.501c0 8 2.66699 14 8 18s11 6 17 6c14.667 0 29.334 -9.33301 44.001 -28c44 -55.333 66 -91.333 66 -108c0 -18 -11.667 -38.667 -35 -62z" />
    <glyph glyph-name="Agrave" unicode="&#xc0;" horiz-adv-x="1311" 
d="M1280 1311c-41.333 -59.333 -80.3301 -218.336 -116.997 -477.003c-32 -228.667 -47 -407 -45 -535c2.66699 -128 23.667 -192 63 -192c7.33301 0 17.833 2.66699 31.5 8s24.167 8 31.5 8c13.333 0 20 -5 20 -15c0 -7.33301 -5 -15.333 -15 -24
c-33.333 -29.333 -84.333 -62 -153 -98c-16.667 -8.66699 -31 -13 -43 -13c-65.333 0 -88.666 165.333 -69.999 496c-160 -9.33301 -311 -22.333 -453 -39l-198 -242c35.333 4 48.666 6 39.999 6c32 0 56.667 -32.667 74 -98c4.66699 -15.333 7 -27.333 7 -36
c0 -16 -7 -24 -21 -24c-6.66699 0 -16.5 1.66699 -29.5 5s-23.167 5 -30.5 5c-56.667 0 -133 -30.333 -229 -91l-43 -27c-5.33301 0 -15.333 5 -30 15c-31.333 21.333 -53.333 47 -66 77c-8 20.667 3.66699 41.334 35 62.001c41.333 26.667 98 71.667 170 135
s119 109 141 137c-6 60.667 -9 92.334 -9 95.001c1.33301 38 15.666 62.667 42.999 74c24 10 66.667 16.667 128 20c165.333 201.333 298.333 398 399 590c-32.667 -17.333 -91.334 -39.666 -176.001 -66.999c-135.333 -44 -228.666 -75 -279.999 -93
c-72.667 -26 -109 -71.333 -109 -136c0 -13.333 1.33301 -28 4 -44c4 -24.667 -2.33301 -37 -19 -37c-12 0 -20.667 5.33301 -26 16c-36.667 76.667 -58.334 130.667 -65.001 162c-6 28 -9 42.667 -9 44c0 23.333 11 44.666 33 63.999c40 34 116 59.333 228 76
c168 25.333 312.667 65 434 119c14.667 14.667 22.667 23 24 25c3.33301 4.66699 6.83301 13.667 10.5 27s10.167 20 19.5 20c15.333 0 38.333 -16.333 69 -49c10 -11.333 15 -22.666 15 -33.999c0 -6.66699 -11.333 -29.667 -34 -69
c-49.333 -87.333 -115.333 -193 -198 -317c-92 -138.667 -163.333 -237 -214 -295c158.667 0 283 4 373 12c9.33301 93.333 29.666 226.333 60.999 399l48 254c10 72 58.333 124.667 145 158c13.333 5.33301 24.333 8 33 8c14.667 0 22 -6.33301 22 -19
c0 -12 -6.66699 -27.333 -20 -46zM1227 1500c2 -4.66699 3.00098 -9.33301 3.00098 -14c0 -14.667 -7 -22 -21 -22c-9.33301 0 -18.333 5.66699 -27 17c-47.333 59.333 -97 109.333 -149 150c-28 21.333 -51 32 -69 32c-27.333 0 -41 9 -41 27c0 4 3 7.33301 9 10l57 27
c12 5.33301 22.667 8 32 8c18 0 37.333 -11 58 -33c69.333 -72.667 118.666 -140 147.999 -202z" />
    <glyph glyph-name="Aacute" unicode="&#xc1;" horiz-adv-x="1311" 
d="M1280 1311c-41.333 -59.333 -80.3301 -218.336 -116.997 -477.003c-32 -228.667 -47 -407 -45 -535c2.66699 -128 23.667 -192 63 -192c7.33301 0 17.833 2.66699 31.5 8s24.167 8 31.5 8c13.333 0 20 -5 20 -15c0 -7.33301 -5 -15.333 -15 -24
c-33.333 -29.333 -84.333 -62 -153 -98c-16.667 -8.66699 -31 -13 -43 -13c-65.333 0 -88.666 165.333 -69.999 496c-160 -9.33301 -311 -22.333 -453 -39l-198 -242c35.333 4 48.666 6 39.999 6c32 0 56.667 -32.667 74 -98c4.66699 -15.333 7 -27.333 7 -36
c0 -16 -7 -24 -21 -24c-6.66699 0 -16.5 1.66699 -29.5 5s-23.167 5 -30.5 5c-56.667 0 -133 -30.333 -229 -91l-43 -27c-5.33301 0 -15.333 5 -30 15c-31.333 21.333 -53.333 47 -66 77c-8 20.667 3.66699 41.334 35 62.001c41.333 26.667 98 71.667 170 135
s119 109 141 137c-6 60.667 -9 92.334 -9 95.001c1.33301 38 15.666 62.667 42.999 74c24 10 66.667 16.667 128 20c165.333 201.333 298.333 398 399 590c-32.667 -17.333 -91.334 -39.666 -176.001 -66.999c-135.333 -44 -228.666 -75 -279.999 -93
c-72.667 -26 -109 -71.333 -109 -136c0 -13.333 1.33301 -28 4 -44c4 -24.667 -2.33301 -37 -19 -37c-12 0 -20.667 5.33301 -26 16c-36.667 76.667 -58.334 130.667 -65.001 162c-6 28 -9 42.667 -9 44c0 23.333 11 44.666 33 63.999c40 34 116 59.333 228 76
c168 25.333 312.667 65 434 119c14.667 14.667 22.667 23 24 25c3.33301 4.66699 6.83301 13.667 10.5 27s10.167 20 19.5 20c15.333 0 38.333 -16.333 69 -49c10 -11.333 15 -22.666 15 -33.999c0 -6.66699 -11.333 -29.667 -34 -69
c-49.333 -87.333 -115.333 -193 -198 -317c-92 -138.667 -163.333 -237 -214 -295c158.667 0 283 4 373 12c9.33301 93.333 29.666 226.333 60.999 399l48 254c10 72 58.333 124.667 145 158c13.333 5.33301 24.333 8 33 8c14.667 0 22 -6.33301 22 -19
c0 -12 -6.66699 -27.333 -20 -46zM1348 1700c5.33301 -2.66699 8 -6.00098 8 -10.001c0 -18 -13.667 -27 -41 -27c-18 0 -42.667 -12 -74 -36c-49.333 -39.333 -97 -88 -143 -146c-8.66699 -11.333 -18 -17 -28 -17c-13.333 0 -20 7.33301 -20 22
c0 4.66699 1 9.33398 3 14.001c28.667 62 77.667 129.333 147 202c21.333 22 41 33 59 33c8.66699 0 19 -2.66699 31 -8z" />
    <glyph glyph-name="Acircumflex" unicode="&#xc2;" horiz-adv-x="1311" 
d="M1280 1311c-41.333 -59.333 -80.3301 -218.336 -116.997 -477.003c-32 -228.667 -47 -407 -45 -535c2.66699 -128 23.667 -192 63 -192c7.33301 0 17.833 2.66699 31.5 8s24.167 8 31.5 8c13.333 0 20 -5 20 -15c0 -7.33301 -5 -15.333 -15 -24
c-33.333 -29.333 -84.333 -62 -153 -98c-16.667 -8.66699 -31 -13 -43 -13c-65.333 0 -88.666 165.333 -69.999 496c-160 -9.33301 -311 -22.333 -453 -39l-198 -242c35.333 4 48.666 6 39.999 6c32 0 56.667 -32.667 74 -98c4.66699 -15.333 7 -27.333 7 -36
c0 -16 -7 -24 -21 -24c-6.66699 0 -16.5 1.66699 -29.5 5s-23.167 5 -30.5 5c-56.667 0 -133 -30.333 -229 -91l-43 -27c-5.33301 0 -15.333 5 -30 15c-31.333 21.333 -53.333 47 -66 77c-8 20.667 3.66699 41.334 35 62.001c41.333 26.667 98 71.667 170 135
s119 109 141 137c-6 60.667 -9 92.334 -9 95.001c1.33301 38 15.666 62.667 42.999 74c24 10 66.667 16.667 128 20c165.333 201.333 298.333 398 399 590c-32.667 -17.333 -91.334 -39.666 -176.001 -66.999c-135.333 -44 -228.666 -75 -279.999 -93
c-72.667 -26 -109 -71.333 -109 -136c0 -13.333 1.33301 -28 4 -44c4 -24.667 -2.33301 -37 -19 -37c-12 0 -20.667 5.33301 -26 16c-36.667 76.667 -58.334 130.667 -65.001 162c-6 28 -9 42.667 -9 44c0 23.333 11 44.666 33 63.999c40 34 116 59.333 228 76
c168 25.333 312.667 65 434 119c14.667 14.667 22.667 23 24 25c3.33301 4.66699 6.83301 13.667 10.5 27s10.167 20 19.5 20c15.333 0 38.333 -16.333 69 -49c10 -11.333 15 -22.666 15 -33.999c0 -6.66699 -11.333 -29.667 -34 -69
c-49.333 -87.333 -115.333 -193 -198 -317c-92 -138.667 -163.333 -237 -214 -295c158.667 0 283 4 373 12c9.33301 93.333 29.666 226.333 60.999 399l48 254c10 72 58.333 124.667 145 158c13.333 5.33301 24.333 8 33 8c14.667 0 22 -6.33301 22 -19
c0 -12 -6.66699 -27.333 -20 -46zM1380 1498c18.667 -4.66699 28 -10.3359 28 -17.0029c0 -7.33301 -12.667 -16 -38 -26c-30 -12.667 -48.667 -19 -56 -19c-12.667 0 -25.334 11 -38.001 33c-26.667 43.333 -54.667 97.333 -84 162c-2 6.66699 -14.333 2.33398 -37 -12.999
l-215 -157c-23.333 -14.667 -38.333 -22 -45 -22s-12.334 7.33301 -17.001 22c-3.33301 11.333 -5 20.333 -5 27c0 12.667 12 21.334 36 26.001c30 2 112 55.333 246 160c12 9.33301 21.667 22.333 29 39c5.33301 12 16 20.667 32 26
c24.667 8.66699 38.334 7.33398 41.001 -3.99902c10.667 -44 28.834 -91 54.501 -141s48.5 -82 68.5 -96z" />
    <glyph glyph-name="Atilde" unicode="&#xc3;" horiz-adv-x="1311" 
d="M1280 1311c-41.333 -59.333 -80.3301 -218.336 -116.997 -477.003c-32 -228.667 -47 -407 -45 -535c2.66699 -128 23.667 -192 63 -192c7.33301 0 17.833 2.66699 31.5 8s24.167 8 31.5 8c13.333 0 20 -5 20 -15c0 -7.33301 -5 -15.333 -15 -24
c-33.333 -29.333 -84.333 -62 -153 -98c-16.667 -8.66699 -31 -13 -43 -13c-65.333 0 -88.666 165.333 -69.999 496c-160 -9.33301 -311 -22.333 -453 -39l-198 -242c35.333 4 48.666 6 39.999 6c32 0 56.667 -32.667 74 -98c4.66699 -15.333 7 -27.333 7 -36
c0 -16 -7 -24 -21 -24c-6.66699 0 -16.5 1.66699 -29.5 5s-23.167 5 -30.5 5c-56.667 0 -133 -30.333 -229 -91l-43 -27c-5.33301 0 -15.333 5 -30 15c-31.333 21.333 -53.333 47 -66 77c-8 20.667 3.66699 41.334 35 62.001c41.333 26.667 98 71.667 170 135
s119 109 141 137c-6 60.667 -9 92.334 -9 95.001c1.33301 38 15.666 62.667 42.999 74c24 10 66.667 16.667 128 20c165.333 201.333 298.333 398 399 590c-32.667 -17.333 -91.334 -39.666 -176.001 -66.999c-135.333 -44 -228.666 -75 -279.999 -93
c-72.667 -26 -109 -71.333 -109 -136c0 -13.333 1.33301 -28 4 -44c4 -24.667 -2.33301 -37 -19 -37c-12 0 -20.667 5.33301 -26 16c-36.667 76.667 -58.334 130.667 -65.001 162c-6 28 -9 42.667 -9 44c0 23.333 11 44.666 33 63.999c40 34 116 59.333 228 76
c168 25.333 312.667 65 434 119c14.667 14.667 22.667 23 24 25c3.33301 4.66699 6.83301 13.667 10.5 27s10.167 20 19.5 20c15.333 0 38.333 -16.333 69 -49c10 -11.333 15 -22.666 15 -33.999c0 -6.66699 -11.333 -29.667 -34 -69
c-49.333 -87.333 -115.333 -193 -198 -317c-92 -138.667 -163.333 -237 -214 -295c158.667 0 283 4 373 12c9.33301 93.333 29.666 226.333 60.999 399l48 254c10 72 58.333 124.667 145 158c13.333 5.33301 24.333 8 33 8c14.667 0 22 -6.33301 22 -19
c0 -12 -6.66699 -27.333 -20 -46zM1388 1594c-22.667 -27.333 -51.3301 -57.666 -85.9971 -90.999c-39.333 -36.667 -63.333 -54.334 -72 -53.001c-30.667 6.66699 -73.667 41 -129 103c-32.667 30 -63.334 47.667 -92.001 53c-17.333 5.33301 -55.333 -24 -114 -88
c0 -14.667 -5 -22 -15 -22c-8.66699 0 -17.334 5.33301 -26.001 16c-18.667 22 -24.334 37.667 -17.001 47c22 28 51 59 87 93c39.333 36.667 63.666 54 72.999 52c29.333 -5.33301 72.333 -40 129 -104c28 -26 58 -43.667 90 -53c21.333 -4.66699 59.666 25.333 114.999 90
c0.666992 14 6.33398 21 17.001 21c8.66699 0 17.334 -5 26.001 -15c14 -18 21 -29 21 -33c0 -4.66699 -2.33301 -10 -7 -16z" />
    <glyph glyph-name="Adieresis" unicode="&#xc4;" horiz-adv-x="1311" 
d="M1280 1311c-41.333 -59.333 -80.3301 -218.336 -116.997 -477.003c-32 -228.667 -47 -407 -45 -535c2.66699 -128 23.667 -192 63 -192c7.33301 0 17.833 2.66699 31.5 8s24.167 8 31.5 8c13.333 0 20 -5 20 -15c0 -7.33301 -5 -15.333 -15 -24
c-33.333 -29.333 -84.333 -62 -153 -98c-16.667 -8.66699 -31 -13 -43 -13c-65.333 0 -88.666 165.333 -69.999 496c-160 -9.33301 -311 -22.333 -453 -39l-198 -242c35.333 4 48.666 6 39.999 6c32 0 56.667 -32.667 74 -98c4.66699 -15.333 7 -27.333 7 -36
c0 -16 -7 -24 -21 -24c-6.66699 0 -16.5 1.66699 -29.5 5s-23.167 5 -30.5 5c-56.667 0 -133 -30.333 -229 -91l-43 -27c-5.33301 0 -15.333 5 -30 15c-31.333 21.333 -53.333 47 -66 77c-8 20.667 3.66699 41.334 35 62.001c41.333 26.667 98 71.667 170 135
s119 109 141 137c-6 60.667 -9 92.334 -9 95.001c1.33301 38 15.666 62.667 42.999 74c24 10 66.667 16.667 128 20c165.333 201.333 298.333 398 399 590c-32.667 -17.333 -91.334 -39.666 -176.001 -66.999c-135.333 -44 -228.666 -75 -279.999 -93
c-72.667 -26 -109 -71.333 -109 -136c0 -13.333 1.33301 -28 4 -44c4 -24.667 -2.33301 -37 -19 -37c-12 0 -20.667 5.33301 -26 16c-36.667 76.667 -58.334 130.667 -65.001 162c-6 28 -9 42.667 -9 44c0 23.333 11 44.666 33 63.999c40 34 116 59.333 228 76
c168 25.333 312.667 65 434 119c14.667 14.667 22.667 23 24 25c3.33301 4.66699 6.83301 13.667 10.5 27s10.167 20 19.5 20c15.333 0 38.333 -16.333 69 -49c10 -11.333 15 -22.666 15 -33.999c0 -6.66699 -11.333 -29.667 -34 -69
c-49.333 -87.333 -115.333 -193 -198 -317c-92 -138.667 -163.333 -237 -214 -295c158.667 0 283 4 373 12c9.33301 93.333 29.666 226.333 60.999 399l48 254c10 72 58.333 124.667 145 158c13.333 5.33301 24.333 8 33 8c14.667 0 22 -6.33301 22 -19
c0 -12 -6.66699 -27.333 -20 -46zM1333 1653c2.66699 -24.667 -8.33398 -68.333 -33.001 -131c-22.667 -58 -39 -87 -49 -87c-2 0 -4 0.333008 -6 1c-23.333 14 -36.333 29 -39 45c0 8 2 12 6 12c22.667 58.667 38.334 125 47.001 199c0.666992 12 5 25 13 39
c3.33301 0.666992 19 -14.333 47 -45c8 -9.33301 12.667 -20.333 14 -33zM1120 1653c2 -27.333 -9 -71.668 -33 -133.001c-22 -57.333 -38 -86 -48 -86c-8 0 -17.333 5.83301 -28 17.5s-16.667 21.5 -18 29.5c0 8.66699 2 12 6 10c20.667 54.667 35.667 121 45 199
c1.33301 12.667 6.33301 26.334 15 41.001c3.33301 0.666992 19 -14.333 47 -45c7.33301 -8 12 -19 14 -33z" />
    <glyph glyph-name="Aring" unicode="&#xc5;" horiz-adv-x="1311" 
d="M1280 1311c-41.333 -59.333 -80.3301 -218.336 -116.997 -477.003c-32 -228.667 -47 -407 -45 -535c2.66699 -128 23.667 -192 63 -192c7.33301 0 17.833 2.66699 31.5 8s24.167 8 31.5 8c13.333 0 20 -5 20 -15c0 -7.33301 -5 -15.333 -15 -24
c-33.333 -29.333 -84.333 -62 -153 -98c-16.667 -8.66699 -31 -13 -43 -13c-65.333 0 -88.666 165.333 -69.999 496c-160 -9.33301 -311 -22.333 -453 -39l-198 -242c35.333 4 48.666 6 39.999 6c32 0 56.667 -32.667 74 -98c4.66699 -15.333 7 -27.333 7 -36
c0 -16 -7 -24 -21 -24c-6.66699 0 -16.5 1.66699 -29.5 5s-23.167 5 -30.5 5c-56.667 0 -133 -30.333 -229 -91l-43 -27c-5.33301 0 -15.333 5 -30 15c-31.333 21.333 -53.333 47 -66 77c-8 20.667 3.66699 41.334 35 62.001c41.333 26.667 98 71.667 170 135
s119 109 141 137c-6 60.667 -9 92.334 -9 95.001c1.33301 38 15.666 62.667 42.999 74c24 10 66.667 16.667 128 20c165.333 201.333 298.333 398 399 590c-32.667 -17.333 -91.334 -39.666 -176.001 -66.999c-135.333 -44 -228.666 -75 -279.999 -93
c-72.667 -26 -109 -71.333 -109 -136c0 -13.333 1.33301 -28 4 -44c4 -24.667 -2.33301 -37 -19 -37c-12 0 -20.667 5.33301 -26 16c-36.667 76.667 -58.334 130.667 -65.001 162c-6 28 -9 42.667 -9 44c0 23.333 11 44.666 33 63.999c40 34 116 59.333 228 76
c168 25.333 312.667 65 434 119c14.667 14.667 22.667 23 24 25c3.33301 4.66699 6.83301 13.667 10.5 27s10.167 20 19.5 20c15.333 0 38.333 -16.333 69 -49c10 -11.333 15 -22.666 15 -33.999c0 -6.66699 -11.333 -29.667 -34 -69
c-49.333 -87.333 -115.333 -193 -198 -317c-92 -138.667 -163.333 -237 -214 -295c158.667 0 283 4 373 12c9.33301 93.333 29.666 226.333 60.999 399l48 254c10 72 58.333 124.667 145 158c13.333 5.33301 24.333 8 33 8c14.667 0 22 -6.33301 22 -19
c0 -12 -6.66699 -27.333 -20 -46zM1272 1655c21.333 -16.667 32 -34 32 -52c0 -21.333 -17 -47.666 -51 -78.999c-54 -49.333 -100.333 -78.666 -139 -87.999c-22.667 -5.33301 -49.334 1.66699 -80.001 21c-6 3.33301 -11.333 8 -16 14c-38.667 33.333 -58 62 -58 86
c0 11.333 3.33301 23 10 35c14 23.333 44.167 52.166 90.5 86.499s81.833 51.5 106.5 51.5c14 0 29.667 -21.333 47 -64c4 -6.66699 1 -10 -9 -10c-4.66699 0 -7.66699 1 -9 3c-5.33301 7.33301 -15.666 8.66602 -30.999 3.99902c-36 -10.667 -75 -41.334 -117 -92.001
c-18 -22 -27 -40.667 -27 -56c0 -22.667 14 -34 42 -34c50.667 0 107.334 39 170.001 117c15.333 19.333 18.666 36.333 9.99902 51c-4 6.66699 -6 12 -6 16c0 4.66699 2.66699 6.66699 8 6c6 -1.33301 15 -6.66602 27 -15.999z" />
    <glyph glyph-name="AE" unicode="&#xc6;" horiz-adv-x="1782" 
d="M1898 1208c12 -46 18.001 -72.668 18.001 -80.001c0 -14 -17.333 -31 -52 -51c-29.333 -16 -76.666 -18 -141.999 -6c-120.667 23.333 -279.667 52 -477 86c-31.333 -124.667 -54.333 -255.667 -69 -393c169.333 14.667 314 23.667 434 27
c37.333 0.666992 62.666 -11.666 75.999 -36.999c1.33301 -4 6.66602 -26.667 15.999 -68c1.33301 -5.33301 2 -10 2 -14c0 -22.667 -26 -38.334 -78 -47.001c-35.333 -6.66699 -57.666 -9.33398 -66.999 -8.00098c-12 0.666992 -21.667 7.33398 -29 20.001
c-10.667 18 -29 27 -55 27c-2 0 -25.833 0.666992 -71.5 2s-85.5 2 -119.5 2c-48.667 0 -89 -1.33301 -121 -4c-22 -196.667 -33 -335.334 -33 -416.001c0 -25.333 1 -47.333 3 -66c119.333 -3.33301 274 -13.333 464 -30c21.333 -2 34.5 8.16699 39.5 30.5
s11.833 33.833 20.5 34.5c17.333 1.33301 28.333 -6 33 -22c7.33301 -26.667 16.666 -65 27.999 -115c3.33301 -12.667 -2.66699 -26.334 -18 -41.001l-41.5 -34c-13.667 -11.333 -26.167 -16.666 -37.5 -15.999c-1.33301 0.666992 -20 5.66699 -56 15
c-145.333 39.333 -256 57 -332 53c-16 -0.666992 -36.667 -3.33398 -62 -8.00098c-5.33301 -3.33301 -23.666 -24.333 -54.999 -63c-10.667 -14 -23.334 -21 -38.001 -21c-36.667 0 -60 30.667 -70 92c-58.667 -2 -111.334 -6 -158.001 -12
c-7.33301 -14 -16.333 -21 -27 -21c-13.333 0 -24.666 11.667 -33.999 35c-8 19.333 -12 36.666 -12 51.999c0 38.667 73.333 61.667 220 69c-2.66699 98 -2 189 2 273c-120.667 -4.66699 -264 -11 -430 -19l-335 -396c-52 -56 -90.667 -84 -116 -84
c-4.66699 0 -10 0.333008 -16 1c-12 2 -35.667 26.667 -71 74c-27.333 13.333 -41 27 -41 41c0 16.667 18.333 43.334 55 80.001c61.333 61.333 92 107.666 92 138.999c0 11.333 6 19 18 23c11.333 4 19.666 3 24.999 -3c23.333 -23.333 48 -53.333 74 -90
c13.333 10.667 50.333 51.667 111 123c-9.33301 92.667 -3.5 148.334 17.5 167.001s75.833 29.334 164.5 32.001c60.667 74 136.667 180.667 228 320c88 133.333 155.333 243 202 329c-183.333 20.667 -296.666 31 -339.999 31c-34 0 -66 -1.33301 -96 -4
c-92.667 -10 -139 -58 -139 -144c0 -34.667 6.66699 -83.667 20 -147c0.666992 -4 1 -7.66699 1 -11c0 -20 -9 -30 -27 -30c-16 0 -26.333 8 -31 24c-33.333 101.333 -50 190.333 -50 267c0 36.667 3.66699 71.334 11 104.001c11.333 52.667 90 79 236 79
c124.667 0 323.667 -21 597 -63c27.333 31.333 63 55.333 107 72c12.667 4.66699 23.334 7 32.001 7c14.667 0 22 -6 22 -18c0 -11.333 -6.66699 -26.666 -20 -45.999c-6 -9.33301 -12 -21 -18 -35c134 -24 284.333 -52.667 451 -86c8.66699 -2 17 -3 25 -3
c28 0 52.333 12.667 73 38c8.66699 10.667 19.667 16 33 16c17.333 0 28.666 -11 33.999 -33zM1114 1174c-8 1.33301 -22.332 3.33301 -42.999 6c-2.66699 -6 -6.66699 -14.333 -12 -25c-152.667 -268 -284.334 -470.667 -395.001 -608c156.667 0 272.667 3.33301 348 10
c8.66699 85.333 42.667 291 102 617z" />
    <glyph glyph-name="Ccedilla" unicode="&#xc7;" horiz-adv-x="1034" 
d="M1055 1153c-32 -130 -69 -230.334 -111 -301.001c-19.333 -33.333 -38.333 -50 -57 -50c-7.33301 0 -16.333 1.66699 -27 5c-50.667 15.333 -76 33.666 -76 54.999c0 10.667 7 17.667 21 21c58.667 88 93.334 193.667 104.001 317c-36.667 32.667 -71.334 49 -104.001 49
c-69.333 0.666992 -151.333 -60.333 -246 -183c-87.333 -114.667 -163 -250.667 -227 -408c-66.667 -164 -98.667 -300.667 -96 -410c1.33301 -68.667 20.333 -116 57 -142c34.667 -23.333 67 -35 97 -35c18.667 0 40.334 4.33301 65.001 13c160 58.667 300.667 153 422 283
c16.667 18 26.667 41 30 69c2 14.667 8.66699 22 20 22c9.33301 0 16.333 -6 21 -18c24 -60 36 -101.667 36 -125c0 -22 -9 -42.667 -27 -62c-12 -12 -40.333 -35 -85 -69c-140.667 -105.333 -262 -171.333 -364 -198c-25.333 -6.66699 -48 -11 -68 -13
c-19.333 -1.33301 -36.333 -0.666016 -51 2.00098c-3.33301 -8 -11.333 -36 -24 -84c24.667 5.33301 58.667 5.33301 102 0c23.333 -2.66699 38 -9 44 -19c4.66699 -7.33301 7 -23.333 7 -48c20 -26.667 30 -50 30 -70s-10 -38.333 -30 -55
c-42.667 -34.667 -107.334 -62.667 -194.001 -84c-6 -1.33301 -11.333 -2 -16 -2c-24.667 0 -44 24.667 -58 74c-2.66699 8 -4 14.667 -4 20c0 10.667 4.33301 16 13 16s18.667 -4.66699 30 -14c2.66699 -0.666992 5.66699 -1 9 -1c52 0 105 20.333 159 61
c19.333 14.667 29 26.334 29 35.001c0 10.667 -14 16.667 -42 18c-33.333 1.33301 -75 -4.33398 -125 -17.001c-18 -2.66699 -33 12.333 -45 45c-4.66699 14.667 -0.333984 32.667 12.999 54c23.333 36.667 42.333 65.334 57 86.001c-16 8 -31.667 21 -47 39
c-130 48.667 -195 123 -195 223c0 161.333 42.333 334.666 127 519.999c72.667 160.667 162.334 302 269.001 424c102.667 116.667 186 177.334 250 182.001c23.333 2 50.333 -7.66699 81 -29c4 -2.66699 35 -27.667 93 -75c3.33301 26.667 12.333 40 27 40
c16 0 43 -14.667 81 -44c24 -18.667 36 -36.667 36 -54c0 -11.333 -3.66699 -32.333 -11 -63z" />
    <glyph glyph-name="Egrave" unicode="&#xc8;" horiz-adv-x="1235" 
d="M1323 1235c5.33301 -28.667 8.00098 -49.6699 8.00098 -63.0029c0 -15.333 -4 -27.333 -12 -36c-1.33301 -1.33301 -14.333 -11.333 -39 -30c-20 -15.333 -49.333 -18 -88 -8c-123.333 31.333 -264 60 -422 86c-45.333 -184 -78.666 -322.667 -99.999 -416
c73.333 6 199 13.667 377 23c37.333 0.666992 62.333 -11.666 75 -36.999c2 -4 7.66699 -26.667 17 -68c0.666992 -5.33301 1 -10 1 -14c0 -22.667 -26.333 -38.334 -79 -47.001c-56 -10 -88 -7 -96 9c-9.33301 20 -27.333 30 -54 30c-148 0 -238.667 -3 -272 -9l-80 -249
c-23.333 -68 -43.833 -115.167 -61.5 -141.5s-46.167 -53.166 -85.5 -80.499c23.333 1.33301 48.666 2 75.999 2c110 0 292 -11.333 546 -34c20.667 -2 33.167 8.16699 37.5 30.5s11.166 33.833 20.499 34.5c18 1.33301 29.333 -6 34 -22l27 -115
c3.33301 -13.333 -2.66699 -27 -18 -41l-42 -34c-13.333 -11.333 -25.333 -16.666 -36 -15.999l-58 15c-143.333 38.667 -304 58 -482 58c-72.667 0 -150.667 -3 -234 -9c-56 -48.667 -91 -73 -105 -73c-11.333 0 -18.666 8.66699 -21.999 26
c-12.667 62.667 -19 97.667 -19 105c0 25.333 14.333 42.333 43 51c26 8 84 14 174 18c70 129.333 124 257 162 383c-4 12 -14.333 36 -31 72c-10 24 -15 41.333 -15 52c0 25.333 25.667 44.333 77 57c10 2.66699 21 5.33398 33 8.00098l114 450
c-95.333 16.667 -166 25 -212 25c-30.667 0 -61.667 -2 -93 -6c-73.333 -10.667 -110 -59.667 -110 -147c0 -39.333 7.33301 -88 22 -146c6.66699 -26 1 -39 -17 -39c-12.667 0 -21.334 8 -26.001 24c-28 92 -42 169.333 -42 232c0 44.667 6.66699 87.667 20 129
c19.333 61.333 77 92 173 92c70.667 0 176.667 -13.667 318 -41c34.667 25.333 58.667 38 72 38c9.33301 0 14 -6 14 -18c0 -8.66699 -2.66699 -20.667 -8 -36c26.667 -8 158.334 -38.667 395.001 -92c30.667 -7.33301 54.667 4 72 34c7.33301 10.667 15.666 16 24.999 16
c13.333 0 22 -10.667 26 -32zM1067 1500c2 -4.66699 3.00098 -9.33301 3.00098 -14c0 -14.667 -7 -22 -21 -22c-9.33301 0 -18.333 5.66699 -27 17c-47.333 59.333 -97 109.333 -149 150c-28 21.333 -51 32 -69 32c-27.333 0 -41 9 -41 27c0 4 3 7.33301 9 10l57 27
c12 5.33301 22.667 8 32 8c18 0 37.333 -11 58 -33c69.333 -72.667 118.666 -140 147.999 -202z" />
    <glyph glyph-name="Eacute" unicode="&#xc9;" horiz-adv-x="1235" 
d="M1323 1235c5.33301 -28.667 8.00098 -49.6699 8.00098 -63.0029c0 -15.333 -4 -27.333 -12 -36c-1.33301 -1.33301 -14.333 -11.333 -39 -30c-20 -15.333 -49.333 -18 -88 -8c-123.333 31.333 -264 60 -422 86c-45.333 -184 -78.666 -322.667 -99.999 -416
c73.333 6 199 13.667 377 23c37.333 0.666992 62.333 -11.666 75 -36.999c2 -4 7.66699 -26.667 17 -68c0.666992 -5.33301 1 -10 1 -14c0 -22.667 -26.333 -38.334 -79 -47.001c-56 -10 -88 -7 -96 9c-9.33301 20 -27.333 30 -54 30c-148 0 -238.667 -3 -272 -9l-80 -249
c-23.333 -68 -43.833 -115.167 -61.5 -141.5s-46.167 -53.166 -85.5 -80.499c23.333 1.33301 48.666 2 75.999 2c110 0 292 -11.333 546 -34c20.667 -2 33.167 8.16699 37.5 30.5s11.166 33.833 20.499 34.5c18 1.33301 29.333 -6 34 -22l27 -115
c3.33301 -13.333 -2.66699 -27 -18 -41l-42 -34c-13.333 -11.333 -25.333 -16.666 -36 -15.999l-58 15c-143.333 38.667 -304 58 -482 58c-72.667 0 -150.667 -3 -234 -9c-56 -48.667 -91 -73 -105 -73c-11.333 0 -18.666 8.66699 -21.999 26
c-12.667 62.667 -19 97.667 -19 105c0 25.333 14.333 42.333 43 51c26 8 84 14 174 18c70 129.333 124 257 162 383c-4 12 -14.333 36 -31 72c-10 24 -15 41.333 -15 52c0 25.333 25.667 44.333 77 57c10 2.66699 21 5.33398 33 8.00098l114 450
c-95.333 16.667 -166 25 -212 25c-30.667 0 -61.667 -2 -93 -6c-73.333 -10.667 -110 -59.667 -110 -147c0 -39.333 7.33301 -88 22 -146c6.66699 -26 1 -39 -17 -39c-12.667 0 -21.334 8 -26.001 24c-28 92 -42 169.333 -42 232c0 44.667 6.66699 87.667 20 129
c19.333 61.333 77 92 173 92c70.667 0 176.667 -13.667 318 -41c34.667 25.333 58.667 38 72 38c9.33301 0 14 -6 14 -18c0 -8.66699 -2.66699 -20.667 -8 -36c26.667 -8 158.334 -38.667 395.001 -92c30.667 -7.33301 54.667 4 72 34c7.33301 10.667 15.666 16 24.999 16
c13.333 0 22 -10.667 26 -32zM1178 1700c5.33301 -2.66699 8 -6.00098 8 -10.001c0 -18 -13.667 -27 -41 -27c-18 0 -42.667 -12 -74 -36c-49.333 -39.333 -97 -88 -143 -146c-8.66699 -11.333 -18 -17 -28 -17c-13.333 0 -20 7.33301 -20 22c0 4.66699 1 9.33398 3 14.001
c28.667 62 77.667 129.333 147 202c21.333 22 41 33 59 33c8.66699 0 19 -2.66699 31 -8z" />
    <glyph glyph-name="Ecircumflex" unicode="&#xca;" horiz-adv-x="1235" 
d="M1323 1235c5.33301 -28.667 8.00098 -49.6699 8.00098 -63.0029c0 -15.333 -4 -27.333 -12 -36c-1.33301 -1.33301 -14.333 -11.333 -39 -30c-20 -15.333 -49.333 -18 -88 -8c-123.333 31.333 -264 60 -422 86c-45.333 -184 -78.666 -322.667 -99.999 -416
c73.333 6 199 13.667 377 23c37.333 0.666992 62.333 -11.666 75 -36.999c2 -4 7.66699 -26.667 17 -68c0.666992 -5.33301 1 -10 1 -14c0 -22.667 -26.333 -38.334 -79 -47.001c-56 -10 -88 -7 -96 9c-9.33301 20 -27.333 30 -54 30c-148 0 -238.667 -3 -272 -9l-80 -249
c-23.333 -68 -43.833 -115.167 -61.5 -141.5s-46.167 -53.166 -85.5 -80.499c23.333 1.33301 48.666 2 75.999 2c110 0 292 -11.333 546 -34c20.667 -2 33.167 8.16699 37.5 30.5s11.166 33.833 20.499 34.5c18 1.33301 29.333 -6 34 -22l27 -115
c3.33301 -13.333 -2.66699 -27 -18 -41l-42 -34c-13.333 -11.333 -25.333 -16.666 -36 -15.999l-58 15c-143.333 38.667 -304 58 -482 58c-72.667 0 -150.667 -3 -234 -9c-56 -48.667 -91 -73 -105 -73c-11.333 0 -18.666 8.66699 -21.999 26
c-12.667 62.667 -19 97.667 -19 105c0 25.333 14.333 42.333 43 51c26 8 84 14 174 18c70 129.333 124 257 162 383c-4 12 -14.333 36 -31 72c-10 24 -15 41.333 -15 52c0 25.333 25.667 44.333 77 57c10 2.66699 21 5.33398 33 8.00098l114 450
c-95.333 16.667 -166 25 -212 25c-30.667 0 -61.667 -2 -93 -6c-73.333 -10.667 -110 -59.667 -110 -147c0 -39.333 7.33301 -88 22 -146c6.66699 -26 1 -39 -17 -39c-12.667 0 -21.334 8 -26.001 24c-28 92 -42 169.333 -42 232c0 44.667 6.66699 87.667 20 129
c19.333 61.333 77 92 173 92c70.667 0 176.667 -13.667 318 -41c34.667 25.333 58.667 38 72 38c9.33301 0 14 -6 14 -18c0 -8.66699 -2.66699 -20.667 -8 -36c26.667 -8 158.334 -38.667 395.001 -92c30.667 -7.33301 54.667 4 72 34c7.33301 10.667 15.666 16 24.999 16
c13.333 0 22 -10.667 26 -32zM1196 1498c18.667 -4.66699 28 -10.3359 28 -17.0029c0 -7.33301 -12.667 -16 -38 -26c-30 -12.667 -48.667 -19 -56 -19c-12.667 0 -25.334 11 -38.001 33c-26.667 43.333 -54.667 97.333 -84 162c-2 6.66699 -14.333 2.33398 -37 -12.999
l-215 -157c-23.333 -14.667 -38.333 -22 -45 -22s-12.334 7.33301 -17.001 22c-3.33301 11.333 -5 20.333 -5 27c0 12.667 12 21.334 36 26.001c30 2 112 55.333 246 160c12 9.33301 21.667 22.333 29 39c5.33301 12 16 20.667 32 26
c24.667 8.66699 38.334 7.33398 41.001 -3.99902c10.667 -44 28.834 -91 54.501 -141s48.5 -82 68.5 -96z" />
    <glyph glyph-name="Edieresis" unicode="&#xcb;" horiz-adv-x="1235" 
d="M1323 1235c5.33301 -28.667 8.00098 -49.6699 8.00098 -63.0029c0 -15.333 -4 -27.333 -12 -36c-1.33301 -1.33301 -14.333 -11.333 -39 -30c-20 -15.333 -49.333 -18 -88 -8c-123.333 31.333 -264 60 -422 86c-45.333 -184 -78.666 -322.667 -99.999 -416
c73.333 6 199 13.667 377 23c37.333 0.666992 62.333 -11.666 75 -36.999c2 -4 7.66699 -26.667 17 -68c0.666992 -5.33301 1 -10 1 -14c0 -22.667 -26.333 -38.334 -79 -47.001c-56 -10 -88 -7 -96 9c-9.33301 20 -27.333 30 -54 30c-148 0 -238.667 -3 -272 -9l-80 -249
c-23.333 -68 -43.833 -115.167 -61.5 -141.5s-46.167 -53.166 -85.5 -80.499c23.333 1.33301 48.666 2 75.999 2c110 0 292 -11.333 546 -34c20.667 -2 33.167 8.16699 37.5 30.5s11.166 33.833 20.499 34.5c18 1.33301 29.333 -6 34 -22l27 -115
c3.33301 -13.333 -2.66699 -27 -18 -41l-42 -34c-13.333 -11.333 -25.333 -16.666 -36 -15.999l-58 15c-143.333 38.667 -304 58 -482 58c-72.667 0 -150.667 -3 -234 -9c-56 -48.667 -91 -73 -105 -73c-11.333 0 -18.666 8.66699 -21.999 26
c-12.667 62.667 -19 97.667 -19 105c0 25.333 14.333 42.333 43 51c26 8 84 14 174 18c70 129.333 124 257 162 383c-4 12 -14.333 36 -31 72c-10 24 -15 41.333 -15 52c0 25.333 25.667 44.333 77 57c10 2.66699 21 5.33398 33 8.00098l114 450
c-95.333 16.667 -166 25 -212 25c-30.667 0 -61.667 -2 -93 -6c-73.333 -10.667 -110 -59.667 -110 -147c0 -39.333 7.33301 -88 22 -146c6.66699 -26 1 -39 -17 -39c-12.667 0 -21.334 8 -26.001 24c-28 92 -42 169.333 -42 232c0 44.667 6.66699 87.667 20 129
c19.333 61.333 77 92 173 92c70.667 0 176.667 -13.667 318 -41c34.667 25.333 58.667 38 72 38c9.33301 0 14 -6 14 -18c0 -8.66699 -2.66699 -20.667 -8 -36c26.667 -8 158.334 -38.667 395.001 -92c30.667 -7.33301 54.667 4 72 34c7.33301 10.667 15.666 16 24.999 16
c13.333 0 22 -10.667 26 -32zM1110 1653c2.66699 -24.667 -8.33398 -68.333 -33.001 -131c-22.667 -58 -39 -87 -49 -87c-2 0 -4 0.333008 -6 1c-23.333 14 -36.333 29 -39 45c0 8 2 12 6 12c22.667 58.667 38.334 125 47.001 199c0.666992 12 5 25 13 39
c3.33301 0.666992 19 -14.333 47 -45c8 -9.33301 12.667 -20.333 14 -33zM897 1653c2 -27.333 -9 -71.668 -33 -133.001c-22 -57.333 -38 -86 -48 -86c-8 0 -17.333 5.83301 -28 17.5s-16.667 21.5 -18 29.5c0 8.66699 2 12 6 10c20.667 54.667 35.667 121 45 199
c1.33301 12.667 6.33301 26.334 15 41.001c3.33301 0.666992 19 -14.333 47 -45c7.33301 -8 12 -19 14 -33z" />
    <glyph glyph-name="Igrave" unicode="&#xcc;" horiz-adv-x="848" 
d="M877 1024c-23.333 -194 -84.668 -409.999 -184.001 -647.999c-116.667 -280.667 -229.667 -421.667 -339 -423c-66 -0.666992 -146.333 34.666 -241 105.999c-7.33301 6 -11 13.667 -11 23c0 23.333 10.667 35 32 35c5.33301 0 10.666 -1.33301 15.999 -4
c57.333 -29.333 106.333 -44.333 147 -45c88.667 -2.66699 186.334 129 293.001 395c102 256.667 156.667 486.667 164 690c2 66 -30.667 99 -98 99c-10.667 0 -22.334 -1 -35.001 -3c-52 -7.33301 -111 -48.666 -177 -123.999c-73.333 -84 -125 -179.667 -155 -287
c-4 -14 -6 -27.333 -6 -40c0 -24.667 8.33301 -47.334 25 -68.001l46 -46c7.33301 -7.33301 11 -14 11 -20c0 -12.667 -10 -19 -30 -19c-8 0 -14.667 1.33301 -20 4c-57.333 34 -96.666 61.667 -117.999 83c-25.333 26 -38 55.667 -38 89c0 31.333 12 74.333 36 129
c34.667 80.667 86.334 159.667 155.001 237c65.333 74 124 122 176 144c24 10.667 73.333 4.66699 148 -18c4.66699 6 11.667 9 21 9c26 0 77 -25 153 -75c34 -22 43.667 -96.333 29 -223zM837.998 1500c2 -4.66699 3.00098 -9.33301 3.00098 -14c0 -14.667 -7 -22 -21 -22
c-9.33301 0 -18.333 5.66699 -27 17c-47.333 59.333 -97 109.333 -149 150c-28 21.333 -51 32 -69 32c-27.333 0 -41 9 -41 27c0 4 3 7.33301 9 10l57 27c12 5.33301 22.667 8 32 8c18 0 37.333 -11 58 -33c69.333 -72.667 118.666 -140 147.999 -202z" />
    <glyph glyph-name="Iacute" unicode="&#xcd;" horiz-adv-x="848" 
d="M877 1024c-23.333 -194 -84.668 -409.999 -184.001 -647.999c-116.667 -280.667 -229.667 -421.667 -339 -423c-66 -0.666992 -146.333 34.666 -241 105.999c-7.33301 6 -11 13.667 -11 23c0 23.333 10.667 35 32 35c5.33301 0 10.666 -1.33301 15.999 -4
c57.333 -29.333 106.333 -44.333 147 -45c88.667 -2.66699 186.334 129 293.001 395c102 256.667 156.667 486.667 164 690c2 66 -30.667 99 -98 99c-10.667 0 -22.334 -1 -35.001 -3c-52 -7.33301 -111 -48.666 -177 -123.999c-73.333 -84 -125 -179.667 -155 -287
c-4 -14 -6 -27.333 -6 -40c0 -24.667 8.33301 -47.334 25 -68.001l46 -46c7.33301 -7.33301 11 -14 11 -20c0 -12.667 -10 -19 -30 -19c-8 0 -14.667 1.33301 -20 4c-57.333 34 -96.666 61.667 -117.999 83c-25.333 26 -38 55.667 -38 89c0 31.333 12 74.333 36 129
c34.667 80.667 86.334 159.667 155.001 237c65.333 74 124 122 176 144c24 10.667 73.333 4.66699 148 -18c4.66699 6 11.667 9 21 9c26 0 77 -25 153 -75c34 -22 43.667 -96.333 29 -223zM947.998 1700c5.33301 -2.66699 8 -6.00098 8 -10.001c0 -18 -13.667 -27 -41 -27
c-18 0 -42.667 -12 -74 -36c-49.333 -39.333 -97 -88 -143 -146c-8.66699 -11.333 -18 -17 -28 -17c-13.333 0 -20 7.33301 -20 22c0 4.66699 1 9.33398 3 14.001c28.667 62 77.667 129.333 147 202c21.333 22 41 33 59 33c8.66699 0 19 -2.66699 31 -8z" />
    <glyph glyph-name="Icircumflex" unicode="&#xce;" horiz-adv-x="848" 
d="M877 1024c-23.333 -194 -84.668 -409.999 -184.001 -647.999c-116.667 -280.667 -229.667 -421.667 -339 -423c-66 -0.666992 -146.333 34.666 -241 105.999c-7.33301 6 -11 13.667 -11 23c0 23.333 10.667 35 32 35c5.33301 0 10.666 -1.33301 15.999 -4
c57.333 -29.333 106.333 -44.333 147 -45c88.667 -2.66699 186.334 129 293.001 395c102 256.667 156.667 486.667 164 690c2 66 -30.667 99 -98 99c-10.667 0 -22.334 -1 -35.001 -3c-52 -7.33301 -111 -48.666 -177 -123.999c-73.333 -84 -125 -179.667 -155 -287
c-4 -14 -6 -27.333 -6 -40c0 -24.667 8.33301 -47.334 25 -68.001l46 -46c7.33301 -7.33301 11 -14 11 -20c0 -12.667 -10 -19 -30 -19c-8 0 -14.667 1.33301 -20 4c-57.333 34 -96.666 61.667 -117.999 83c-25.333 26 -38 55.667 -38 89c0 31.333 12 74.333 36 129
c34.667 80.667 86.334 159.667 155.001 237c65.333 74 124 122 176 144c24 10.667 73.333 4.66699 148 -18c4.66699 6 11.667 9 21 9c26 0 77 -25 153 -75c34 -22 43.667 -96.333 29 -223zM974.998 1498c18.667 -4.66699 28 -10.3359 28 -17.0029
c0 -7.33301 -12.667 -16 -38 -26c-30 -12.667 -48.667 -19 -56 -19c-12.667 0 -25.334 11 -38.001 33c-26.667 43.333 -54.667 97.333 -84 162c-2 6.66699 -14.333 2.33398 -37 -12.999l-215 -157c-23.333 -14.667 -38.333 -22 -45 -22s-12.334 7.33301 -17.001 22
c-3.33301 11.333 -5 20.333 -5 27c0 12.667 12 21.334 36 26.001c30 2 112 55.333 246 160c12 9.33301 21.667 22.333 29 39c5.33301 12 16 20.667 32 26c24.667 8.66699 38.334 7.33398 41.001 -3.99902c10.667 -44 28.834 -91 54.501 -141s48.5 -82 68.5 -96z" />
    <glyph glyph-name="Idieresis" unicode="&#xcf;" horiz-adv-x="848" 
d="M674 1313c5.33301 6 11.668 9.00293 19.001 9.00293c18 0 44.333 -8.33301 79 -25c46.667 -22 77.667 -45 93 -69c12.667 -20 19 -51.333 19 -94c0 -110.667 -19.667 -236.334 -59 -377.001c-75.333 -266 -162 -476.667 -260 -632
c-56 -88.667 -108.333 -142.334 -157 -161.001c-18 -7.33301 -37.333 -11 -58 -11c-40 0 -87.667 14 -143 42c-70 35.333 -105 65 -105 89c0 22 10.333 33 31 33c6 0 18.333 -4.66699 37 -14c47.333 -23.333 88.666 -35 123.999 -35c60.667 0 121.667 51.333 183 154
c49.333 83.333 96.333 190.666 141 321.999c56.667 166.667 94 294 112 382c16 74.667 24 150.667 24 228c0 65.333 -32.333 98 -97 98c-70 0 -141 -42.333 -213 -127c-76 -88.667 -127.667 -184.334 -155 -287.001c-4 -14.667 -6 -27.667 -6 -39c0 -31.333 16 -62 48 -92
c22.667 -21.333 34 -36 34 -44c0 -12 -9.66699 -18 -29 -18c-21.333 0 -59.333 21.667 -114 65c-42 34 -63 70.667 -63 110c0 42 19.333 100.667 58 176c54.667 106.667 129.667 200.334 225 281.001c46.667 39.333 84 59 112 59c26 0 66 -7.66699 120 -23zM801.002 1436
c-26 16 -39.001 31.999 -39.001 47.999c0 6 2 9 6 9c22.667 58.667 38.334 125 47.001 199c0.666992 12.667 5 25.667 13 39c6 -0.666992 16 -9 30 -25c20.667 -22.667 31 -43 31 -61c0 -8 -11 -49 -33 -123c-12.667 -41.333 -27.667 -69.666 -45 -84.999
c-0.666992 -1.33301 -2 -2 -4 -2s-4 0.333008 -6 1zM555.001 1491c20.667 55.333 35.665 121.667 44.998 199c1.33301 12 6.33301 25.667 15 41c14 -2 31.333 -19.333 52 -52c6 -10 9 -20.667 9 -32c0 -10.667 -7 -39 -21 -85c-25.333 -85.333 -45.666 -128 -60.999 -128
c-10.667 0 -22.667 10 -36 30c-6 8 -9 14.667 -9 20s1.33301 8 4 8c0.666992 0 1.33398 -0.333008 2.00098 -1z" />
    <glyph glyph-name="Eth" unicode="&#xd0;" horiz-adv-x="1311" 
d="M528 561c-64.667 -212 -111.003 -392.337 -139.003 -541.004c-6.66699 -33.333 -20.667 -50 -42 -50c-8 0 -17.333 2.33301 -28 7c-34.667 18 -57.334 32.667 -68.001 44c-14.667 15.333 -22 36.333 -22 63c0 56 9 123 27 201c4.66699 19.333 11.667 29 21 29
c8.66699 0 31.667 -15.333 69 -46l90 291c-42 -1.33301 -66.667 -10.333 -74 -27c-6 -10 -12.333 -15 -19 -15c-4.66699 0 -7 4.66699 -7 14c0 8 2 18.667 6 32c14 44 25 71.333 33 82c10 13.333 25.667 19 47 17c28 -3.33301 43.667 -5 47 -5
c65.333 208 110.333 342.667 135 404c-148.667 -93.333 -263.334 -183.333 -344.001 -270c-18.667 -20.667 -28 -44.667 -28 -72c0 -24.667 8 -52.667 24 -84s24 -49.333 24 -54c0 -11.333 -7.66699 -17 -23 -17c-13.333 0 -23.333 3.66699 -30 11
c-83.333 98 -125 165.667 -125 203c0 39.333 26.667 83 80 131c112.667 102 276 214.667 490 338c35.333 82.667 61 124 77 124c12 0 36.667 -18 74 -54l110 50c30.667 13.333 55.667 20 75 20c32 0 75 -18 129 -54c2.66699 2.66699 7 4 13 4
c37.333 0 94.333 -34.667 171 -104c41.333 -38 62 -79 62 -123c0 -10.667 -1 -23 -3 -37c-20.667 -154.667 -70.667 -321.667 -150 -501c-72 -163.333 -152 -303.166 -240 -419.499s-158.667 -174.833 -212 -175.5c-66 0 -160 41 -282 123
c-9.33301 6.66699 -14 14.334 -14 23.001c0 21.333 12.333 32 37 32c6.66699 0 13.334 -1.66699 20.001 -5c50 -31.333 105.333 -48.666 166 -51.999c83.333 -4 190 118.333 320 367c128.667 245.333 203.334 464.333 224.001 657c6.66699 62 -26.666 108 -99.999 138
c-18 6.66699 -33 9.33398 -45 8.00098c-128.667 -18 -253 -64.667 -373 -140c-55.333 -130 -112.666 -287 -171.999 -471h47c119.333 0 187 9.66699 203 29c6 8 12.667 12 20 12c8.66699 0 13 -6 13 -18c0 -7.33301 -2 -16.333 -6 -27c-20 -46 -33.333 -71.667 -40 -77
c-14 -11.333 -49.333 -16.333 -106 -15c-37.333 1.33301 -70.666 1.33301 -99.999 0h-62z" />
    <glyph glyph-name="Ntilde" unicode="&#xd1;" horiz-adv-x="1432" 
d="M1589 1296c9.33301 -10.667 13.998 -22.334 13.998 -35.001c0 -23.333 -17.667 -55.666 -53 -96.999l-80 -85c-54 -152.667 -103.667 -317 -149 -493c-54 -208 -82 -360.333 -84 -457c11.333 -30.667 17 -51.334 17 -62.001c0 -26.667 -24.667 -56.667 -74 -90
c-9.33301 -6 -18.333 -9 -27 -9c-11.333 0 -22 6 -32 18c-6.66699 7.33301 -13 14.666 -19 21.999c-10 6.66699 -10 35.334 0 86.001c-58.667 154.667 -141 331.334 -247 530.001c-91.333 170.667 -156.666 280.667 -195.999 330c-27.333 -88 -77 -223.667 -149 -407
l-115 -293c18 6.66699 46 -27.333 84 -102c4 -7.33301 6 -13.333 6 -18c0 -11.333 -9.66699 -17.333 -29 -18c12.667 0.666992 -3.33301 1 -48 1c-41.333 0 -76.333 -14.333 -105 -43l-25 -57c-12 -28 -29 -42 -51 -42c-8.66699 0 -18.667 2.33301 -30 7
c-68 27.333 -101.667 54.333 -101 81c1.33301 34.667 54 83.334 158 146.001c54.667 98 124.334 255.667 209.001 473c68 173.333 112.333 295 133 365c-46.667 74.667 -94.334 125.667 -143.001 153c-18.667 10 -35 15 -49 15c-28.667 0 -67 -18 -115 -54
c-12.667 -9.33301 -25 -14 -37 -14c-15.333 0 -23 7 -23 21c0 12 7 24.667 21 38c73.333 70.667 118.666 112.667 135.999 126c37.333 30 69 43.333 95 40c40.667 -4.66699 94 -53 160 -145c14 34.667 18 61.334 12 80.001c-0.666992 3.33301 -1 6.33301 -1 9
c0 8.66699 3.66699 13 11 13c12.667 0 32 -11 58 -33c13.333 -11.333 20 -27 20 -47c0 -16.667 -4.33301 -38 -13 -64c-7.33301 -19.333 -14.333 -39 -21 -59c90.667 -126.667 184.334 -278 281.001 -454c88.667 -162.667 148.334 -287.667 179.001 -375
c23.333 151.333 80 401.333 170 750c-16.667 10.667 -37.667 27 -63 49c-11.333 12 -17 22 -17 30c0 11.333 11.5 16.166 34.5 14.499s79.833 55.166 170.5 170.499c20.667 25.333 38 38 52 38c19.333 0 44.333 -17.667 75 -53zM1390 1594
c-22.667 -27.333 -51.3301 -57.666 -85.9971 -90.999c-39.333 -36.667 -63.333 -54.334 -72 -53.001c-30.667 6.66699 -73.667 41 -129 103c-32.667 30 -63.334 47.667 -92.001 53c-17.333 5.33301 -55.333 -24 -114 -88c0 -14.667 -5 -22 -15 -22
c-8.66699 0 -17.334 5.33301 -26.001 16c-18.667 22 -24.334 37.667 -17.001 47c22 28 51 59 87 93c39.333 36.667 63.666 54 72.999 52c29.333 -5.33301 72.333 -40 129 -104c28 -26 58 -43.667 90 -53c21.333 -4.66699 59.666 25.333 114.999 90
c0.666992 14 6.33398 21 17.001 21c8.66699 0 17.334 -5 26.001 -15c14 -18 21 -29 21 -33c0 -4.66699 -2.33301 -10 -7 -16z" />
    <glyph glyph-name="Ograve" unicode="&#xd2;" horiz-adv-x="1194" 
d="M1280 1143c-24 -208 -92.999 -434.334 -206.999 -679.001c-148.667 -321.333 -313 -485.666 -493 -492.999c-34.667 -1.33301 -67.667 1.33398 -99 8.00098c-36 6.66699 -51.667 15.667 -47 27c-109.333 26.667 -185 57.667 -227 93c-58 48.667 -85.333 123.667 -82 225
c6.66699 193.333 64.334 400.333 173.001 621c87.333 177.333 171.666 303.333 252.999 378c34 31.333 65.333 47 94 47s57.667 -8 87 -24c12 -6.66699 50 -31.334 114 -74.001c52 56.667 96.333 97.667 133 123c22 14.667 44.667 22 68 22
c39.333 0 74.666 -19.667 105.999 -59c55.333 -3.33301 91 -10.666 107 -21.999c19.333 -12.667 29 -39.334 29 -80.001c0 -23.333 -3 -61 -9 -113zM1147 1227c3.33301 50 -8.33203 74.998 -34.999 74.998c-21.333 0 -53.333 -15 -96 -45c-96 -66 -212 -163.333 -348 -292
c-15.333 -14.667 -29 -22.334 -41 -23.001c-11.333 -1.33301 -17 3.66699 -17 15c0 10.667 5 23.334 15 38.001c58 90.667 117.333 169.334 178 236.001c-34.667 26 -65.667 39 -93 39c-16.667 0 -31.334 -5 -44.001 -15c-74 -54 -157.667 -173.667 -251 -359
c-111.333 -219.333 -163 -411.666 -155 -576.999c3.33301 -67.333 16.333 -118.333 39 -153c20 -30 55.667 -58 107 -84c40.667 -20.667 80.667 -29 120 -25c136 14.667 270.667 153.667 404 417c126.667 250.667 199 501.667 217 753zM1076 1500
c2 -4.66699 3.00098 -9.33301 3.00098 -14c0 -14.667 -7 -22 -21 -22c-9.33301 0 -18.333 5.66699 -27 17c-47.333 59.333 -97 109.333 -149 150c-28 21.333 -51 32 -69 32c-27.333 0 -41 9 -41 27c0 4 3 7.33301 9 10l57 27c12 5.33301 22.667 8 32 8
c18 0 37.333 -11 58 -33c69.333 -72.667 118.666 -140 147.999 -202z" />
    <glyph glyph-name="Oacute" unicode="&#xd3;" horiz-adv-x="1194" 
d="M1280 1143c-24 -208 -92.999 -434.334 -206.999 -679.001c-148.667 -321.333 -313 -485.666 -493 -492.999c-34.667 -1.33301 -67.667 1.33398 -99 8.00098c-36 6.66699 -51.667 15.667 -47 27c-109.333 26.667 -185 57.667 -227 93c-58 48.667 -85.333 123.667 -82 225
c6.66699 193.333 64.334 400.333 173.001 621c87.333 177.333 171.666 303.333 252.999 378c34 31.333 65.333 47 94 47s57.667 -8 87 -24c12 -6.66699 50 -31.334 114 -74.001c52 56.667 96.333 97.667 133 123c22 14.667 44.667 22 68 22
c39.333 0 74.666 -19.667 105.999 -59c55.333 -3.33301 91 -10.666 107 -21.999c19.333 -12.667 29 -39.334 29 -80.001c0 -23.333 -3 -61 -9 -113zM1147 1227c3.33301 50 -8.33203 74.998 -34.999 74.998c-21.333 0 -53.333 -15 -96 -45c-96 -66 -212 -163.333 -348 -292
c-15.333 -14.667 -29 -22.334 -41 -23.001c-11.333 -1.33301 -17 3.66699 -17 15c0 10.667 5 23.334 15 38.001c58 90.667 117.333 169.334 178 236.001c-34.667 26 -65.667 39 -93 39c-16.667 0 -31.334 -5 -44.001 -15c-74 -54 -157.667 -173.667 -251 -359
c-111.333 -219.333 -163 -411.666 -155 -576.999c3.33301 -67.333 16.333 -118.333 39 -153c20 -30 55.667 -58 107 -84c40.667 -20.667 80.667 -29 120 -25c136 14.667 270.667 153.667 404 417c126.667 250.667 199 501.667 217 753zM1202 1700
c5.33301 -2.66699 8 -6.00098 8 -10.001c0 -18 -13.667 -27 -41 -27c-18 0 -42.667 -12 -74 -36c-49.333 -39.333 -97 -88 -143 -146c-8.66699 -11.333 -18 -17 -28 -17c-13.333 0 -20 7.33301 -20 22c0 4.66699 1 9.33398 3 14.001c28.667 62 77.667 129.333 147 202
c21.333 22 41 33 59 33c8.66699 0 19 -2.66699 31 -8z" />
    <glyph glyph-name="Ocircumflex" unicode="&#xd4;" horiz-adv-x="1194" 
d="M1280 1143c-24 -208 -92.999 -434.334 -206.999 -679.001c-148.667 -321.333 -313 -485.666 -493 -492.999c-34.667 -1.33301 -67.667 1.33398 -99 8.00098c-36 6.66699 -51.667 15.667 -47 27c-109.333 26.667 -185 57.667 -227 93c-58 48.667 -85.333 123.667 -82 225
c6.66699 193.333 64.334 400.333 173.001 621c87.333 177.333 171.666 303.333 252.999 378c34 31.333 65.333 47 94 47s57.667 -8 87 -24c12 -6.66699 50 -31.334 114 -74.001c52 56.667 96.333 97.667 133 123c22 14.667 44.667 22 68 22
c39.333 0 74.666 -19.667 105.999 -59c55.333 -3.33301 91 -10.666 107 -21.999c19.333 -12.667 29 -39.334 29 -80.001c0 -23.333 -3 -61 -9 -113zM1147 1227c3.33301 50 -8.33203 74.998 -34.999 74.998c-21.333 0 -53.333 -15 -96 -45c-96 -66 -212 -163.333 -348 -292
c-15.333 -14.667 -29 -22.334 -41 -23.001c-11.333 -1.33301 -17 3.66699 -17 15c0 10.667 5 23.334 15 38.001c58 90.667 117.333 169.334 178 236.001c-34.667 26 -65.667 39 -93 39c-16.667 0 -31.334 -5 -44.001 -15c-74 -54 -157.667 -173.667 -251 -359
c-111.333 -219.333 -163 -411.666 -155 -576.999c3.33301 -67.333 16.333 -118.333 39 -153c20 -30 55.667 -58 107 -84c40.667 -20.667 80.667 -29 120 -25c136 14.667 270.667 153.667 404 417c126.667 250.667 199 501.667 217 753zM1237 1498
c18.667 -4.66699 28 -10.3359 28 -17.0029c0 -7.33301 -12.667 -16 -38 -26c-30 -12.667 -48.667 -19 -56 -19c-12.667 0 -25.334 11 -38.001 33c-26.667 43.333 -54.667 97.333 -84 162c-2 6.66699 -14.333 2.33398 -37 -12.999l-215 -157
c-23.333 -14.667 -38.333 -22 -45 -22s-12.334 7.33301 -17.001 22c-3.33301 11.333 -5 20.333 -5 27c0 12.667 12 21.334 36 26.001c30 2 112 55.333 246 160c12 9.33301 21.667 22.333 29 39c5.33301 12 16 20.667 32 26c24.667 8.66699 38.334 7.33398 41.001 -3.99902
c10.667 -44 28.834 -91 54.501 -141s48.5 -82 68.5 -96z" />
    <glyph glyph-name="Otilde" unicode="&#xd5;" horiz-adv-x="1194" 
d="M1280 1143c-24 -208 -92.999 -434.334 -206.999 -679.001c-148.667 -321.333 -313 -485.666 -493 -492.999c-34.667 -1.33301 -67.667 1.33398 -99 8.00098c-36 6.66699 -51.667 15.667 -47 27c-109.333 26.667 -185 57.667 -227 93c-58 48.667 -85.333 123.667 -82 225
c6.66699 193.333 64.334 400.333 173.001 621c87.333 177.333 171.666 303.333 252.999 378c34 31.333 65.333 47 94 47s57.667 -8 87 -24c12 -6.66699 50 -31.334 114 -74.001c52 56.667 96.333 97.667 133 123c22 14.667 44.667 22 68 22
c39.333 0 74.666 -19.667 105.999 -59c55.333 -3.33301 91 -10.666 107 -21.999c19.333 -12.667 29 -39.334 29 -80.001c0 -23.333 -3 -61 -9 -113zM1147 1227c3.33301 50 -8.33203 74.998 -34.999 74.998c-21.333 0 -53.333 -15 -96 -45c-96 -66 -212 -163.333 -348 -292
c-15.333 -14.667 -29 -22.334 -41 -23.001c-11.333 -1.33301 -17 3.66699 -17 15c0 10.667 5 23.334 15 38.001c58 90.667 117.333 169.334 178 236.001c-34.667 26 -65.667 39 -93 39c-16.667 0 -31.334 -5 -44.001 -15c-74 -54 -157.667 -173.667 -251 -359
c-111.333 -219.333 -163 -411.666 -155 -576.999c3.33301 -67.333 16.333 -118.333 39 -153c20 -30 55.667 -58 107 -84c40.667 -20.667 80.667 -29 120 -25c136 14.667 270.667 153.667 404 417c126.667 250.667 199 501.667 217 753zM1280 1594
c-22.667 -27.333 -51.3301 -57.666 -85.9971 -90.999c-39.333 -36.667 -63.333 -54.334 -72 -53.001c-30.667 6.66699 -73.667 41 -129 103c-32.667 30 -63.334 47.667 -92.001 53c-17.333 5.33301 -55.333 -24 -114 -88c0 -14.667 -5 -22 -15 -22
c-8.66699 0 -17.334 5.33301 -26.001 16c-18.667 22 -24.334 37.667 -17.001 47c22 28 51 59 87 93c39.333 36.667 63.666 54 72.999 52c29.333 -5.33301 72.333 -40 129 -104c28 -26 58 -43.667 90 -53c21.333 -4.66699 59.666 25.333 114.999 90
c0.666992 14 6.33398 21 17.001 21c8.66699 0 17.334 -5 26.001 -15c14 -18 21 -29 21 -33c0 -4.66699 -2.33301 -10 -7 -16z" />
    <glyph glyph-name="Odieresis" unicode="&#xd6;" horiz-adv-x="1194" 
d="M1280 1143c-24 -208 -92.999 -434.334 -206.999 -679.001c-148.667 -321.333 -313 -485.666 -493 -492.999c-34.667 -1.33301 -67.667 1.33398 -99 8.00098c-36 6.66699 -51.667 15.667 -47 27c-109.333 26.667 -185 57.667 -227 93c-58 48.667 -85.333 123.667 -82 225
c6.66699 193.333 64.334 400.333 173.001 621c87.333 177.333 171.666 303.333 252.999 378c34 31.333 65.333 47 94 47s57.667 -8 87 -24c12 -6.66699 50 -31.334 114 -74.001c52 56.667 96.333 97.667 133 123c22 14.667 44.667 22 68 22
c39.333 0 74.666 -19.667 105.999 -59c55.333 -3.33301 91 -10.666 107 -21.999c19.333 -12.667 29 -39.334 29 -80.001c0 -23.333 -3 -61 -9 -113zM1147 1227c3.33301 50 -8.33203 74.998 -34.999 74.998c-21.333 0 -53.333 -15 -96 -45c-96 -66 -212 -163.333 -348 -292
c-15.333 -14.667 -29 -22.334 -41 -23.001c-11.333 -1.33301 -17 3.66699 -17 15c0 10.667 5 23.334 15 38.001c58 90.667 117.333 169.334 178 236.001c-34.667 26 -65.667 39 -93 39c-16.667 0 -31.334 -5 -44.001 -15c-74 -54 -157.667 -173.667 -251 -359
c-111.333 -219.333 -163 -411.666 -155 -576.999c3.33301 -67.333 16.333 -118.333 39 -153c20 -30 55.667 -58 107 -84c40.667 -20.667 80.667 -29 120 -25c136 14.667 270.667 153.667 404 417c126.667 250.667 199 501.667 217 753zM1198 1691
c2.66699 -24.667 -8.33398 -68.333 -33.001 -131c-22.667 -58 -39 -87 -49 -87c-2 0 -4 0.333008 -6 1c-23.333 14 -36.333 29 -39 45c0 8 2 12 6 12c22.667 58.667 38.334 125 47.001 199c0.666992 12 5 25 13 39c3.33301 0.666992 19 -14.333 47 -45
c8 -9.33301 12.667 -20.333 14 -33zM985.002 1691c2 -27.333 -9 -71.668 -33 -133.001c-22 -57.333 -38 -86 -48 -86c-8 0 -17.333 5.83301 -28 17.5s-16.667 21.5 -18 29.5c0 8.66699 2 12 6 10c20.667 54.667 35.667 121 45 199c1.33301 12.667 6.33301 26.334 15 41.001
c3.33301 0.666992 19 -14.333 47 -45c7.33301 -8 12 -19 14 -33z" />
    <glyph glyph-name="multiply" unicode="&#xd7;" horiz-adv-x="868" 
d="M466 423l-95.9971 -93.001c-32.667 -33.333 -52 -55 -58 -65c-2.66699 -5.33301 -6 -18 -10 -38c-1.33301 -10.667 -8 -16 -20 -16c-6 0 -11 4 -15 12c-4.66699 8.66699 -14.667 24 -30 46c-10 14.667 -15 25.334 -15 32.001c0 20 22.333 48.333 67 85
c27.333 22.667 65.666 56.334 114.999 101.001l-45 46c-70.667 72.667 -115 109 -133 109c-2 0 -4.66699 -0.333008 -8 -1h-8c-14 0 -21 6.66699 -21 20c0 6.66699 6.33301 13 19 19c4 2 15.333 8 34 18c19.333 10.667 36.666 16 51.999 16c10 0 27.667 -14 53 -42l95 -100
l26 -27c6 6 13.333 12.667 22 20l50 49l51 50c24.667 25.333 36.667 46.666 36 63.999c-0.666992 19.333 5.66602 29 18.999 29c6 0 12 -4.66699 18 -14c24.667 -39.333 37 -68 37 -86c0 -13.333 -17.333 -35 -52 -65l-120 -109c102 -105.333 161 -158 177 -158
c2 0 5 0.666992 9 2c6 0 11.333 -1.66699 16 -5c7.33301 -6.66699 11 -12.667 11 -18c0 -4.66699 -4 -9.66699 -12 -15c-7.33301 -3.33301 -19.333 -11.333 -36 -24c-20.667 -15.333 -35.667 -23 -45 -23c-12 0 -23.333 5 -34 15c-8.66699 8 -24 25.333 -46 52
c-30.667 36 -65 74 -103 114z" />
    <glyph glyph-name="Oslash" unicode="&#xd8;" horiz-adv-x="1188" 
d="M1280 1143c-24 -208 -93 -434.332 -207 -678.999c-148.667 -321.333 -313 -485.666 -493 -492.999c-33.333 -1.33301 -66.333 1 -99 7c-36.667 6.66699 -53 14.667 -49 24l-96 -180c-17.333 -30.667 -37.333 -46 -60 -46c-6 0 -19.333 3.66699 -40 11
c-14 3.33301 -21 10.666 -21 21.999c0 10.667 6 18.334 18 23.001c20 8 44.667 38 74 90l53 103c-81.333 24 -139.333 55 -174 93c-43.333 47.333 -63.666 116 -60.999 206c6 193.333 63.667 400.333 173 621c87.333 177.333 171.666 303.333 252.999 378
c34 31.333 65.333 47 94 47s57.667 -8 87 -24c12 -6.66699 50 -31.334 114 -74.001c22.667 24.667 45 47 67 67c26 79.333 39 135.333 39 168c0 10 -1.33301 18.333 -4 25c-6 18 -1.66699 27 13 27c6 0 12.667 -4.33301 20 -13c29.333 -32 44 -62.667 44 -92
c0 -12.667 -2.33301 -26.334 -7 -41.001c10 2.66699 20 4 30 4c39.333 0 74.333 -19.667 105 -59c55.333 -3.33301 91 -10.666 107 -21.999c19.333 -12.667 29 -39.334 29 -80.001c0 -23.333 -3 -61 -9 -113zM1147 1227c4 56 -12.667 84 -50 84c-24 0 -55 -13 -93 -39
l-46 -33c-172 -462 -338.333 -854.667 -499 -1178c26 -4.66699 48.333 -6 67 -4c136 14.667 270.667 153.667 404 417c126.667 250.667 199 501.667 217 753zM852 1155c-54 -50 -115.332 -113.334 -183.999 -190.001c-9.33301 -10.667 -19.333 -16 -30 -16
c-14.667 0 -22 7.33301 -22 22c0 7.33301 3 15.333 9 24c64 97.333 123.333 176 178 236c-34.667 26 -65.667 39 -93 39c-16.667 0 -31.334 -5 -44.001 -15c-74 -54 -157.667 -173.667 -251 -359c-111.333 -219.333 -163 -411.666 -155 -576.999
c3.33301 -64 15.333 -113 36 -147c18.667 -31.333 51 -59.333 97 -84c179.333 350 332.333 705.667 459 1067z" />
    </font>
</defs>
</svg>
